Фантастическая четверка / Fantastic Four (2015) BDRip 1080p | Лицензия

 
Автор Сообщение

BOSS ®

Пол:

Стаж: 2 года 1 месяц

Сообщений: 3718

Откуда: ODESSA



Награды: 20 (Подробнее)

Top Keeper 3 (Количество: 1) За внесенный вклад в развитие сайта (Количество: 1) Top Releaser 2 (Количество: 1)
Торрент-статистика

Создавать темы 04-Дек-2015 19:19

[Цитировать]

Информация о фильме
Название: Фантастическая четверка
Оригинальное название: Fantastic Four
Год выхода: 2015
Жанр: фантастика, боевик, приключения
Режиссер: Джош Транк
В ролях: Майлз Теллер, Майкл Б. Джордан, Кейт Мара, Джейми Белл, Тоби Кеббелл, Рег Э. Кэти, Тим Блейк Нельсон, Джошуа Монтес, Дэн Кастелланета, Оуэн Джадж
О фильме: История о четырех молодых астронавтах, которые отважились на авантюрное путешествие в параллельное измерение для исследования аномальной волны космической энергии. Вернувшись из путешествия, они обнаружили у себя суперспособности, которые навсегда изменили их жизни…

Выпущено: Twentieth Century Fox Film Corporation
Продолжительность: 01:39:58
Перевод: Дублированный (лицензия)
Файл
Кодек: x264
Качество: BDRip (источник: Blu-ray Disc)
Видео: 1920x804 (2,40:1), 23.976 fps, 7350 kbps
Аудио #1: AC-3, 6 ch, 448 kbps (Rus)
Аудио #2: AC-3, 6 ch, 448 kbps (Eng)
Субтитры: Русские (форс,полные), Английские
Скачать: сэмпл
Скриншоты

MI

Общее
Уникальный идентификатор : 232488000305818830171198732171455410794 (0xAEE78F65FD03B4919B0EC4D0D996B26A)
Полное имя : Fantastic.Four.2015.BDRip.1080p.Rus.Eng.mkv
Формат : Matroska
Версия формата : Version 2
Размер файла : 5,76 Гбайт
Продолжительность : 1 ч. 39 м.
Общий поток : 8247 Кбит/сек
Название фильма : Фантастическая четверка / Fantastic Four (2015)
Дата кодирования : UTC 2015-12-04 16:49:43
Программа кодирования : mkvmerge v5.8.0 ('No Sleep / Pillow') built on Sep 2 2012 15:37:04
Библиотека кодирования : libebml v1.2.3 + libmatroska v1.3.0
Видео
Идентификатор : 1
Формат : AVC
Формат/Информация : Advanced Video Codec
Профиль формата : High@L4.1
Параметр CABAC формата : Да
Параметр ReFrames формата : 5 кадров
Идентификатор кодека : V_MPEG4/ISO/AVC
Продолжительность : 1 ч. 39 м.
Битрейт : 7350 Кбит/сек
Ширина : 1920 пикселей
Высота : 804 пикселя
Соотношение сторон : 2,40:1
Режим частоты кадров : Постоянный
Частота кадров : 23,976 кадра/сек
Цветовое пространство : YUV
Субдискретизация насыщенности : 4:2:0
Битовая глубина : 8 бит
Тип развёртки : Прогрессивная
Бит/(Пиксели*Кадры) : 0.199
Размер потока : 5,02 Гбайт (87%)
Заголовок : Release by AlexKa
Библиотека кодирования : x264 core 148 r2638 7599210
Настройки программы : cabac=1 / ref=5 / deblock=1:-3:-3 / analyse=0x3:0x133 / me=umh / subme=11 / psy=1 / psy_rd=1.00:0.00 / mixed_ref=1 / me_range=32 / chroma_me=1 / trellis=2 / 8x8dct=1 / cqm=0 / deadzone=21,11 / fast_pskip=0 / chroma_qp_offset=-2 / threads=12 / lookahead_threads=3 / sliced_threads=0 / nr=0 / decimate=0 / interlaced=0 / bluray_compat=0 / constrained_intra=0 / bframes=14 / b_pyramid=2 / b_adapt=2 / b_bias=0 / direct=3 / weightb=1 / open_gop=0 / weightp=2 / keyint=240 / keyint_min=23 / scenecut=40 / intra_refresh=0 / rc=2pass / mbtree=0 / bitrate=7350 / ratetol=1.0 / qcomp=0.60 / qpmin=0 / qpmax=69 / qpstep=4 / cplxblur=20.0 / qblur=0.5 / ip_ratio=1.40 / pb_ratio=1.30 / aq=1:0.70
Язык : English
Аудио #1
Идентификатор : 2
Формат : AC-3
Формат/Информация : Audio Coding 3
Расширение режима : CM (complete main)
Параметр Endianness формата : Big
Идентификатор кодека : A_AC3
Продолжительность : 1 ч. 39 м.
Вид битрейта : Постоянный
Битрейт : 448 Кбит/сек
Каналы : 6 каналов
Расположение каналов : Front: L C R, Side: L R, LFE
Частота : 48,0 КГц
Метод сжатия : С потерями
Размер потока : 320 Мбайт (5%)
Заголовок : Rus
Язык : Russian
Аудио #2
Идентификатор : 3
Формат : AC-3
Формат/Информация : Audio Coding 3
Расширение режима : CM (complete main)
Параметр Endianness формата : Big
Идентификатор кодека : A_AC3
Продолжительность : 1 ч. 39 м.
Вид битрейта : Постоянный
Битрейт : 448 Кбит/сек
Каналы : 6 каналов
Расположение каналов : Front: L C R, Side: L R, LFE
Частота : 48,0 КГц
Метод сжатия : С потерями
Размер потока : 320 Мбайт (5%)
Заголовок : Eng
Язык : English
Текст #1
Идентификатор : 4
Формат : UTF-8
Идентификатор кодека : S_TEXT/UTF8
Идентификатор кодека/Информация : UTF-8 Plain Text
Заголовок : Rus forced
Язык : Russian
Текст #2
Идентификатор : 5
Формат : UTF-8
Идентификатор кодека : S_TEXT/UTF8
Идентификатор кодека/Информация : UTF-8 Plain Text
Заголовок : Rus
Язык : Russian
Текст #3
Идентификатор : 6
Формат : UTF-8
Идентификатор кодека : S_TEXT/UTF8
Идентификатор кодека/Информация : UTF-8 Plain Text
Заголовок : Eng
Язык : English
Меню
00:00:00.000 : :Chapter 01
00:02:30.024 : :Chapter 02
00:07:22.608 : :Chapter 03
00:11:00.159 : :Chapter 04
00:14:59.523 : :Chapter 05
00:17:57.785 : :Chapter 06
00:22:03.321 : :Chapter 07
00:24:44.483 : :Chapter 08
00:27:49.876 : :Chapter 09
00:30:19.776 : :Chapter 10
00:34:56.010 : :Chapter 11
00:38:16.377 : :Chapter 12
00:43:10.087 : :Chapter 13
00:48:16.059 : :Chapter 14
00:51:35.300 : :Chapter 15
00:54:27.055 : :Chapter 16
00:57:18.101 : :Chapter 17
01:00:27.832 : :Chapter 18
01:04:34.912 : :Chapter 19
01:08:04.497 : :Chapter 20
01:12:08.282 : :Chapter 21
01:15:09.963 : :Chapter 22
01:19:10.162 : :Chapter 23
01:22:16.514 : :Chapter 24
01:24:49.542 : :Chapter 25
01:27:01.341 : :Chapter 26
01:30:49.569 : :Chapter 27
01:33:00.449 : :Chapter 28
01:39:58.242 : :Chapter 29

x264

x264 [info]: frame I:1204 Avg QP:12.45 size:183610
x264 [info]: frame P:31016 Avg QP:15.75 size: 74785
x264 [info]: frame B:111600 Avg QP:17.11 size: 26611
x264 [info]: consecutive B-frames: 4.9% 2.5% 5.8% 12.2% 13.9% 35.8% 6.9% 1.1% 2.4% 2.0% 2.5% 0.8% 3.1% 4.6% 1.5%
[Профиль] [ЛС]
Кто просматривает тему:

Форум Тема Автор Размер
Фантастика, фэнтези "АнтиМиры. Фантастический боевик" (29 книг) (2012-2014) [FB2] Garik014 39 MB
Rock (Рок) Znaki - Покруче фантастики - 2015, MP3, 320 kbps достали все 126 MB
Фильмы 2011 года 1984 / Nineteen Eighty-Four (Майкл Редфорд) [1984 фантастика, триллер, драма, эротика, мелодрама DVDRip-AVC ] P2 oartemka178 2.05 GB
Классика зарубежного кино 20000 лье под водой / 20000 Leagues Under the Sea (Ричард Флайшер / Richard Fleischer) [1954, США, Фантастика, фэнтези, драма, приключения, WEB-DLRip] MVO (Светла) Russian Mafia 1.46 GB
Фильмы 2009 года 2012 / 2012 (Роланд Эммерих / Roland Emmerich) [2009, США, Канада, Боевик, приключения, драма, фантастика, BDRip-AVC] Dub + Sub Rus + Original Eng TorrentFilm 4.94 GB
Фильмы 2009 года 2012 / 2012 (Роланд Эммерих / Roland Emmerich) [2009, США, фантастика, боевик, приключения, BDRip] Dub + Sub (Rus) reversefile 1.46 GB
Фильмы 2011 года 2019: Новые варвары / I nuovi barbari (Энцо Дж. Кастеллари) [1983 г., фантастика, боевик, триллер, BDRip] [MVO] Bathory 1.46 GB
Фильмы 2014 года 2047 – Угроза смерти / 2047: Sights of Death (Алессандро Капоне) [2014, фантастика, боевик, триллер] HDRip | L1 BOSS 1.45 GB
Показать сообщения:    

Текущее время: Сегодня 00:06

Часовой пояс: GMT



Вы не можете начинать темы
Вы не можете отвечать на сообщения
Вы не можете редактировать свои сообщения
Вы не можете удалять свои сообщения
Вы не можете голосовать в опросах
Вы не можете прикреплять файлы к сообщениям
Вы не можете скачивать файлы