Фантастическая четверка / Fantastic Four (Джош Транк / Josh Trank) [2015, США, Германия, Великобритания, Канада, фантастика, боевик, приключения, HDRip] Dub (iTunes)

 
Автор Сообщение

TorrentFilm ®

Пол:

Стаж: 2 года 6 месяцев

Сообщений: 7773



Награды: Нет

Торрент-статистика

Создавать темы 23-Ноя-2015 00:08

[Цитировать]

Фантастическая четверка / Fantastic Four
Страна: США, Германия, Великобритания, Канада
Жанр: фантастика, боевик, приключения
Год выпуска: 2015
Продолжительность: 01:39:58
Перевод: Профессиональный (дублированный) | [iTunes]
Cубтитры: нет
Оригинальная аудиодорожка: нет-Режиссер: Джош Транк / Josh Trank-В ролях: Майлз Теллер, Майкл Б. Джордан, Кейт Мара, Джейми Белл, Тоби Кеббелл, Рег Э. Кэти, Тим Блейк Нельсон, Джошуа Монтес, Дэн Кастелланета, Оуэн Джадж-Описание: История о четырех молодых астронавтах, которые отважились на авантюрное путешествие в параллельное измерение для исследования аномальной волны космической энергии. Вернувшись из путешествия, они обнаружили у себя суперспособности, которые навсегда изменили их жизни…-Качество видео: HDRip
Формат видео: AVI
Видео: 720x304 (2.37:1), 23.976 fps, XviD build 73 ~1614 kbps avg, 0.31 bit/pixel
Аудио: 48 kHz, AC3 Dolby Digital, 3/2 (L,C,R,l,r) + LFE ch, ~384 kbps- -

MediaInfo

Format                      : AVI
Format/Info                 : Audio Video Interleave
File size                   : 1.40 GiB
Duration                    : 1h 39mn
Overall bit rate            : 2 008 Kbps
Writing application         : VirtualDubMod 1.5.10.2 (build 2540/release)
Writing library             : VirtualDubMod build 2540/release
Video
ID                          : 0
Format                      : MPEG-4 Visual
Format profile              : Advanced Simple@L5
Format settings, BVOP       : 1
Format settings, QPel       : No
Format settings, GMC        : No warppoints
Format settings, Matrix     : Custom
Codec ID                    : XVID
Codec ID/Hint               : XviD
Duration                    : 1h 39mn
Bit rate                    : 1 615 Kbps
Width                       : 720 pixels
Height                      : 304 pixels
Display aspect ratio        : 2.35:1
Frame rate                  : 23.976 fps
Color space                 : YUV
Chroma subsampling          : 4:2:0
Bit depth                   : 8 bits
Scan type                   : Progressive
Compression mode            : Lossy
Bits/(Pixel*Frame)          : 0.308
Stream size                 : 1.13 GiB (80%)
Writing library             : XviD 73
Audio
ID                          : 1
Format                      : AC-3
Format/Info                 : Audio Coding 3
Mode extension              : CM (complete main)
Format settings, Endianness : Big
Codec ID                    : 2000
Duration                    : 1h 39mn
Bit rate mode               : Constant
Bit rate                    : 384 Kbps
Channel(s)                  : 6 channels
Channel positions           : Front: L C R, Side: L R, LFE
Sampling rate               : 48.0 KHz
Compression mode            : Lossy
Stream size                 : 275 MiB (19%)
Alignment                   : Split accross interleaves
Interleave, duration        : 42 ms (1.00 video frame)
Interleave, preload duratio : 500 ms

Скриншоты

[Профиль] [ЛС]
Кто просматривает тему:

Форум Тема Автор Размер
R.G.TorrentFilm Video Акулы на свободе / Sharkansas Women's Prison Massacre (Джим Уайнорски / Jim Wynorski) [2016, США, Ужасы, фантастика, боевик, WEB-DLRip] MVO Один 777 704 MB
Фильмы 2015 года Бегущий в лабиринте: Испытание огнём / Maze Runner: The Scorch Trials (Уэс Болл / Wes Ball) [2015, США, Фантастика, боевик, триллер, BDRip] Dub TorrentFilm 1.47 GB
Зарубежные сериалы Железный кулак / Marvel's Iron Fist (Сезон 1, Серия 1-13 из 13) (Джон Дал, Фэррен Блэкберн, Ута ) [2017 , Фантастика, боевик, криминал, приключения , WEB-DLRip 1080p] [LostFilm , NewStudiо... Враг Нароода 40.04 GB
Фильмы (HD Rips | 720p, 1080p) Живое / Life [2017] ( Даниэль Эспиноса) [Ужасы, фантастика, триллер , BDRip 1080p][HEVC][DD5.1] [Dub Rus, Ukr , Englis + Subs Rus, Ukr , ENG] [ iTunes] Враг Нароода 7.85 GB
Зарубежные мультфильмы Кингсглейв: Последняя фантазия XV / Kingsglaive: Final Fantasy XV (2016) BDRip-AVC от ExKinoRay | Лицензия Razboynik 2.34 GB
Фильмы (HD Rips | 720p, 1080p) Конг: Остров черепа / Kong: Skull Island [2017] ( Джордан Вот-Робертса) [Фантастика, фэнтези, боевик, приключения , WEB-DLRip 1080p ][265][DD5.1] [Dub Rus, Ukr , Englis + Subs Rus, Ukr , ENG] [... Враг Нароода 9.79 GB
Зарубежные сериалы Легион / Legion (Сезон 1, Серия 1-8 из 8) (Майкл Аппендаль, Ной Хоули) [2017 , Фантастика, боевик, драма , WEB-DLRip 1080p] [ Kravec , LostFilm , NewStudiо ,BaibaKo ,Kubik V Kube , English] + [Subs... Враг Нароода 22.29 GB
Разное Мир фантастики №7 (июль) (2017) PDF BOSS 92 MB
Показать сообщения:    

Текущее время: Сегодня 17:42

Часовой пояс: GMT



Вы не можете начинать темы
Вы не можете отвечать на сообщения
Вы не можете редактировать свои сообщения
Вы не можете удалять свои сообщения
Вы не можете голосовать в опросах
Вы не можете прикреплять файлы к сообщениям
Вы не можете скачивать файлы