Фантастическая четверка: Вторжение Серебряного серфера / 4: Rise of the Silver (Тим Стори / Tim Story) [2007, США, Германия, фантастика, фэнтези, боевик, триллер, BDRip-AVC] DUB + AVO (В. Королёв) + Original (Eng) + Sub (Rus, Eng)

 
Автор Сообщение

painkiller ®

Стаж: 2 года 3 месяца

Сообщений: 582



Награды: Нет

Торрент-статистика

Создавать темы 16-Авг-2014 01:27

[Цитировать]

Фантастическая четверка: Вторжение Серебряного серфера / 4: Rise of the Silver Surfer«Rise»- Страна: США, Германия, Великобритания
Жанр: фантастика, фэнтези, боевик, триллер
Год выпуска: 2007
Продолжительность: 01:31:51-Перевод №1: Профессиональный (дублированный) | Blu-ray CEE
Перевод №2: Авторский (одноголосый закадровый) | В. Королёв
Оригинальная аудиодорожка: English
Cубтитры: Russian (captions), Russian, English-Режиссер: Тим Стори / Tim Story
В ролях: Иоан Граффадд, Джессика Альба, Крис Эванс, Майкл Чиклис, Джулиан МакМахон, Керри Вашингтон, Андре Брогер, Лоуренс Фишборн, Даг Джонс, Бо Гаррет, Brian Posehn, Зэк Гренье, Dawn Chubai, Chris Gailus, Кевин МакНалти, Энди Стал, Debbie Timuss, Монека Делэйн, Кристал Лоу, Кеннет Уэлш, Vanessa Minnillo-Описание: Фантастическая четверка получает вызов со стороны великого и могучего Серебряного Серфера — таинственного межгалактического вестника, который прилетает на Землю, чтобы подготовить ее к полному разрушению. Пока Серебряный Серфер носится по всему земному шару, разрушая все на своём пути, Рид, Сью, Джонни и Бен должны разгадать его тайну и найти способ противостоять внезапному появлению их смертельного врага — доктора Дума.-IMDB | КиноПоиск | Сэмпл-Качество видео: BDRip-AVC
Формат видео: MKV-Видео: 1 152x480 (2.40:1), 23.976 fps, AVC ~4499 kbps avg, 0.331 bit/pixel
Аудио №1: 48 kHz, AC3 Dolby Digital, 3/2 (L,C,R,l,r) + LFE ch, ~448 kbps | Профессиональный (дублированный) | Blu-ray CEE
Аудио №2: 48 kHz, AC3 Dolby Digital, 3/2 (L,C,R,l,r) + LFE ch, ~448 kbps | Авторский (одноголосый закадровый) | В. Королёв
Аудио №3: 48 kHz, AC3 Dolby Digital, 3/2 (L,C,R,l,r) + LFE ch, ~448 kbps | English-Формат субтитров: softsub (*.srt)
Навигация по главам: Присутствует (подписанная)-

MediaInfo

General
Unique ID : 188313345920719200132025989683172156441 (0x8DABD4C87392B40AA06E76A614DD2419)
Complete name : D:\Фильмы\Рипы\4.Rise.of.the.Silver.Surfer.2007.BDRip-AVC.by Fredd Kruger.mkv
Format : Matroska
Format version : Version 2
File size : 3.75 GiB
Duration : 1h 31mn
Overall bit rate : 5 846 Kbps
Movie name : 4: Rise of the Silver Surfer (2007) - Release for rutracker by Fredd Kruger
Encoded date : UTC 2014-02-04 09:43:57
Writing application : mkvmerge v5.0.1 ('Es ist Sommer') built on Nov 6 2011 16:23:40
Writing library : libebml v1.2.2 + libmatroska v1.3.0
Video
ID : 1
Format : AVC
Format/Info : Advanced Video Codec
Format profile : High@L4.1
Format settings, CABAC : Yes
Format settings, ReFrames : 15 frames
Codec ID : V_MPEG4/ISO/AVC
Duration : 1h 31mn
Bit rate : 4 386 Kbps
Width : 1 152 pixels
Height : 480 pixels
Display aspect ratio : 2.40:1
Frame rate mode : Constant
Frame rate : 23.976 fps
Color space : YUV
Chroma subsampling : 4:2:0
Bit depth : 8 bits
Scan type : Progressive
Bits/(Pixel*Frame) : 0.331
Stream size : 2.81 GiB (75%)
Title : Encode by Fredd Kruger
Writing library : x264 core 142 r2389kMod 956c8d8
Encoding settings : cabac=1 / ref=15 / deblock=1:-3:-2 / analyse=0x3:0x133 / me=umh / subme=11 / psy=1 / fade_compensate=0.00 / psy_rd=1.00:0.00 / mixed_ref=1 / me_range=48 / chroma_me=1 / trellis=2 / 8x8dct=1 / cqm=0 / deadzone=21,11 / fast_pskip=1 / chroma_qp_offset=-2 / threads=12 / lookahead_threads=3 / sliced_threads=0 / nr=0 / decimate=1 / interlaced=0 / bluray_compat=0 / constrained_intra=0 / fgo=0 / bframes=16 / b_pyramid=2 / b_adapt=2 / b_bias=0 / direct=3 / weightb=1 / open_gop=0 / weightp=2 / keyint=250 / keyint_min=23 / scenecut=40 / intra_refresh=0 / rc_lookahead=60 / rc=crf / mbtree=0 / crf=17.7500 / qcomp=0.60 / qpmin=0 / qpmax=69 / qpstep=4 / vbv_maxrate=62500 / vbv_bufsize=78125 / crf_max=0.0 / nal_hrd=none / filler=0 / ip_ratio=1.40 / pb_ratio=1.30 / aq=3:0.73 / zones=124420,132139,q=30
Default : Yes
Forced : No
Color primaries : BT.709
Transfer characteristics : BT.709
Matrix coefficients : BT.709
Audio #1
ID : 2
Format : AC-3
Format/Info : Audio Coding 3
Mode extension : CM (complete main)
Format settings, Endianness : Big
Codec ID : A_AC3
Duration : 1h 31mn
Bit rate mode : Constant
Bit rate : 448 Kbps
Channel count : 6 channels
Channel positions : Front: L C R, Side: L R, LFE
Sampling rate : 48.0 KHz
Bit depth : 16 bits
Compression mode : Lossy
Stream size : 294 MiB (8%)
Title : DUB, CEE
Default : Yes
Forced : No
Audio #2
ID : 3
Format : AC-3
Format/Info : Audio Coding 3
Mode extension : CM (complete main)
Format settings, Endianness : Big
Codec ID : A_AC3
Duration : 1h 31mn
Bit rate mode : Constant
Bit rate : 448 Kbps
Channel count : 6 channels
Channel positions : Front: L C R, Side: L R, LFE
Sampling rate : 48.0 KHz
Bit depth : 16 bits
Compression mode : Lossy
Stream size : 294 MiB (8%)
Title : AVO, Королёв
Language : Russian
Default : No
Forced : No
Audio #3
ID : 4
Format : AC-3
Format/Info : Audio Coding 3
Mode extension : CM (complete main)
Format settings, Endianness : Big
Codec ID : A_AC3
Duration : 1h 31mn
Bit rate mode : Constant
Bit rate : 448 Kbps
Channel count : 6 channels
Channel positions : Front: L C R, Side: L R, LFE
Sampling rate : 48.0 KHz
Bit depth : 16 bits
Compression mode : Lossy
Stream size : 294 MiB (8%)
Language : English
Default : No
Forced : No
Text #1
ID : 5
Format : UTF-8
Codec ID : S_TEXT/UTF8
Codec ID/Info : UTF-8 Plain Text
Title : captions
Language : Russian
Default : Yes
Forced : No
Text #2
ID : 6
Format : UTF-8
Codec ID : S_TEXT/UTF8
Codec ID/Info : UTF-8 Plain Text
Language : Russian
Default : No
Forced : No
Text #3
ID : 7
Format : UTF-8
Codec ID : S_TEXT/UTF8
Codec ID/Info : UTF-8 Plain Text
Language : English
Default : No
Forced : No
Menu
00:00:00.000 : en:From Beyond
00:05:59.734 : en:Wedding Issues
00:09:44.458 : en:The Bachelor Party
00:13:49.328 : en:Security Threat
00:18:16.637 : en:Wedding of the Century
00:23:25.112 : en:The Ceremony
00:26:47.188 : en:The Silver Surfer
00:31:33.016 : en:Something Highly Resourceful
00:33:36.055 : en:Power Switch
00:37:06.599 : en:Like Normal People
00:38:34.937 : en:All That You Know is at an End
00:40:26.465 : en:Eight Days Later...
00:41:52.510 : en:London Falling
00:45:40.654 : en:The New Doom
00:48:32.159 : en:Out of Our Hands
00:50:13.260 : en:Tachyon Pulse
00:53:59.819 : en:The Nerd Rises
00:55:34.414 : en:He's Here...
01:00:12.442 : en:Prisoners
01:02:21.904 : en:The Devourer of Worlds
01:06:06.045 : en:Unlimited Powers
01:09:25.995 : en:The World at Stake
01:12:36.352 : en:Doom From Above
01:15:30.859 : en:The Power of Four
01:18:01.551 : en:The Surfer's Choice
01:23:16.324 : en:A Team
01:24:35.737 : en:Fifth Time's the Charm
01:26:30.143 : en:End Titles

x264 log

x264 [info]: frame I:1188 Avg QP:17.58 size: 95138 PSNR Mean Y:45.29 U:49.03 V:50.17 Avg:46.06 Global:45.23
x264 [info]: frame P:29140 Avg QP:19.49 size: 41727 PSNR Mean Y:43.51 U:50.42 V:51.54 Avg:44.39 Global:42.84
x264 [info]: frame B:101812 Avg QP:20.91 size: 17395 PSNR Mean Y:42.40 U:48.67 V:50.21 Avg:43.37 Global:42.29
x264 [info]: consecutive B-frames: 2.6% 2.9% 7.8% 22.9% 14.9% 37.1% 4.7% 2.4% 1.2% 0.9% 0.6% 0.9% 0.5% 0.2% 0.2% 0.1% 0.2%
x264 [info]: mb I I16..4: 2.3% 82.3% 15.4%
x264 [info]: mb P I16..4: 0.5% 19.5% 1.4% P16..4: 23.9% 30.9% 15.0% 2.4% 0.2% skip: 6.1%
x264 [info]: mb B I16..4: 0.0% 3.1% 0.1% B16..8: 37.6% 22.7% 5.3% direct: 7.0% skip:24.0% L0:43.7% L1:43.5% BI:12.8%
x264 [info]: 8x8 transform intra:91.2% inter:59.5%
x264 [info]: direct mvs spatial:99.9% temporal:0.1%
x264 [info]: coded y,uvDC,uvAC intra: 96.4% 91.5% 75.5% inter: 37.8% 31.6% 9.3%
x264 [info]: i16 v,h,dc,p: 22% 15% 7% 56%
x264 [info]: i8 v,h,dc,ddl,ddr,vr,hd,vl,hu: 7% 7% 11% 10% 14% 13% 13% 11% 13%
x264 [info]: i4 v,h,dc,ddl,ddr,vr,hd,vl,hu: 8% 7% 4% 9% 16% 15% 15% 12% 13%
x264 [info]: i8c dc,h,v,p: 48% 19% 15% 19%
x264 [info]: Weighted P-Frames: Y:8.2% UV:5.0%
x264 [info]: ref P L0: 44.0% 11.2% 17.4% 6.8% 5.3% 3.6% 3.0% 1.7% 1.6% 1.2% 1.1% 0.9% 0.8% 0.7% 0.7% 0.1%
x264 [info]: ref B L0: 69.0% 12.6% 6.3% 3.3% 2.4% 1.8% 1.4% 0.8% 0.7% 0.6% 0.5% 0.4% 0.2% 0.1%
x264 [info]: ref B L1: 91.3% 8.7%
x264 [info]: SSIM Mean Y:0.9711722 (15.402db)
x264 [info]: PSNR Mean Y:42.672 U:49.062 V:50.504 Avg:43.615 Global:42.426 kb/s:4499.75
x264 [total]: encoded 132140 frames, 8.23 fps, 4499.75 kb/s

Скриншоты

--
[Профиль] [ЛС]

Создавать темы 06-Авг-2015 23:09 (спустя 11 месяцев 21 день)

Топик был перенесен из форума Фильмы до 2014 года в форум Фильмы до 2012 года
sergej644
 
Кто просматривает тему:

Форум Тема Автор Размер
Фантастика, фэнтези "АнтиМиры. Фантастический боевик" (29 книг) (2012-2014) [FB2] Garik014 39 MB
Rock (Рок) Znaki - Покруче фантастики - 2015, MP3, 320 kbps достали все 126 MB
Фильмы 2011 года 1984 / Nineteen Eighty-Four (Майкл Редфорд) [1984 фантастика, триллер, драма, эротика, мелодрама DVDRip-AVC ] P2 oartemka178 2.05 GB
Классика зарубежного кино 20000 лье под водой / 20000 Leagues Under the Sea (Ричард Флайшер / Richard Fleischer) [1954, США, Фантастика, фэнтези, драма, приключения, WEB-DLRip] MVO (Светла) Russian Mafia 1.46 GB
Фильмы 2009 года 2012 / 2012 (Роланд Эммерих / Roland Emmerich) [2009, США, Канада, Боевик, приключения, драма, фантастика, BDRip-AVC] Dub + Sub Rus + Original Eng TorrentFilm 4.94 GB
Фильмы 2009 года 2012 / 2012 (Роланд Эммерих / Roland Emmerich) [2009, США, фантастика, боевик, приключения, BDRip] Dub + Sub (Rus) reversefile 1.46 GB
Фильмы 2011 года 2019: Новые варвары / I nuovi barbari (Энцо Дж. Кастеллари) [1983 г., фантастика, боевик, триллер, BDRip] [MVO] Bathory 1.46 GB
Фильмы 2014 года 2047 – Угроза смерти / 2047: Sights of Death (Алессандро Капоне) [2014, фантастика, боевик, триллер] HDRip | L1 BOSS 1.45 GB
Показать сообщения:    

Текущее время: Сегодня 00:36

Часовой пояс: GMT



Вы не можете начинать темы
Вы не можете отвечать на сообщения
Вы не можете редактировать свои сообщения
Вы не можете удалять свои сообщения
Вы не можете голосовать в опросах
Вы не можете прикреплять файлы к сообщениям
Вы не можете скачивать файлы