Фантастическая история (Николай Ильинский) [1988, Фантазия, драма, сказка, DVDRip]

 
Автор Сообщение

reversefile ®

Пол:

Стаж: 4 года 11 месяцев

Сообщений: 842

Откуда: ReverseFile.org



Награды: Нет

Торрент-статистика

Создавать темы 11-Авг-2014 06:26

[Цитировать]

Фантастическая история
Жанр: Фантазия, драма, сказка
Год выпуска: 1988
Продолжительность: 1:07:03
Режиссёр: Николай Ильинский
В ролях: Евгений Князев, Константин Титов, Наталья Табакова, Гоша Беленький, Григорий Гладий, Аудрис Мечисловас Хадаравичюс, Юрий Дубровин, Пётр Бенюк, Арнис Лицитис, Александра Яковлева, Владимир Яковлев (II), Николай Олейник, Валентина Ивашёва, Эльжбета Лауцявичюте, Андрей Алёшин, Николай Гудзь, Александр Толстых, Игорь Шкурин
Описание: В центре сюжета - исповедь человека по имени Иоганнес. Он расскажет зрителю историю своей жизни, о своих встречах с королевскими особами европейских стран, о безумной любви и тайнах, завесу которых он приоткрыл. Мастер-изготовитель живых кукол давно должен был покинуть этот мир, но получил второй шанс от Смерти. Каждый решит для себя правильно ли он использовал оставшиеся годы и действительно ли приблизился к пониманию той жизненной правды, которую так долго искал.
Доп. информация: Производство: Киностудия им. А. Довженко
Семпл: http://multi-up.com/960804
Качество видео: DVDRip
Формат видео: AVI
Видео: XviD , 720x304 (2.37:1) , 25 fps , 2110 kbps avg
Аудио: AC3 , 48 kHz , 192.00 kbps avg , 2/0 (L,R) ch

MediaInfo

General
Complete name Фантастическая история 1988.avi
Format : AVI
Format/Info : Audio Video Interleave
File size : 1.08 GiB
Duration : 1h 7mn
Overall bit rate : 2 313 Kbps
Writing library : VirtualDub build 35390/release
Video
ID : 0
Format : MPEG-4 Visual
Format profile : Advanced Simple@L5
Format settings, BVOP : 1
Format settings, QPel : No
Format settings, GMC : No warppoints
Format settings, Matrix : Default (H.263)
Codec ID : XVID
Codec ID/Hint : XviD
Duration : 1h 7mn
Bit rate : 2 111 Kbps
Width : 720 pixels
Height : 304 pixels
Display aspect ratio : 2.35:1
Frame rate : 25.000 fps
Color space : YUV
Chroma subsampling : 4:2:0
Bit depth : 8 bits
Scan type : Progressive
Compression mode : Lossy
Bits/(Pixel*Frame) : 0.386
Stream size : 1 013 MiB (91%)
Writing library : XviD 64
Audio
ID : 1
Format : AC-3
Format/Info : Audio Coding 3
Mode extension : CM (complete main)
Format settings, Endianness : Big
Codec ID : 2000
Duration : 1h 7mn
Bit rate mode : Constant
Bit rate : 192 Kbps
Channel(s) : 2 channels
Channel positions : Front: L R
Sampling rate : 48.0 KHz
Bit depth : 16 bits
Compression mode : Lossy
Stream size : 92.1 MiB (8%)
Alignment : Aligned on interleaves
Interleave, duration : 40 ms (1.00 video frame)
Interleave, preload duration : 512 ms

Скриншоты

[Профиль] [ЛС]

Создавать темы 06-Авг-2015 22:03 (спустя 11 месяцев 26 дней)

Топик был перенесен из форума Кино СССР в форум Кино СССР
sergej644
 
Кто просматривает тему:

Форум Тема Автор Размер
R.G.TorrentFilm Video Акулы на свободе / Sharkansas Women's Prison Massacre (Джим Уайнорски / Jim Wynorski) [2016, США, Ужасы, фантастика, боевик, WEB-DLRip] MVO Один 777 704 MB
Фильмы 2015 года Бегущий в лабиринте: Испытание огнём / Maze Runner: The Scorch Trials (Уэс Болл / Wes Ball) [2015, США, Фантастика, боевик, триллер, BDRip] Dub TorrentFilm 1.47 GB
Зарубежные сериалы Железный кулак / Marvel's Iron Fist (Сезон 1, Серия 1-13 из 13) (Джон Дал, Фэррен Блэкберн, Ута ) [2017 , Фантастика, боевик, криминал, приключения , WEB-DLRip 1080p] [LostFilm , NewStudiо... Враг Нароода 40.04 GB
Фильмы (HD Rips | 720p, 1080p) Живое / Life [2017] ( Даниэль Эспиноса) [Ужасы, фантастика, триллер , BDRip 1080p][HEVC][DD5.1] [Dub Rus, Ukr , Englis + Subs Rus, Ukr , ENG] [ iTunes] Враг Нароода 7.85 GB
Зарубежные мультфильмы Кингсглейв: Последняя фантазия XV / Kingsglaive: Final Fantasy XV (2016) BDRip-AVC от ExKinoRay | Лицензия Razboynik 2.34 GB
Фильмы (HD Rips | 720p, 1080p) Конг: Остров черепа / Kong: Skull Island [2017] ( Джордан Вот-Робертса) [Фантастика, фэнтези, боевик, приключения , WEB-DLRip 1080p ][265][DD5.1] [Dub Rus, Ukr , Englis + Subs Rus, Ukr , ENG] [... Враг Нароода 9.79 GB
Фильмы (HD Rips | 720p, 1080p) Конг: Остров черепа / Kong: Skull Island [2017] ( Джордан Вот-Робертса) [Фантастика, фэнтези, боевик, приключения , ]BDRip 1080p][DD5.1] [Dub Rus, Ukr , Englis + Subs Rus, Ukr , ENG] [Лицензия] Враг Нароода 15.21 GB
Зарубежные сериалы Легион / Legion (Сезон 1, Серия 1-8 из 8) (Майкл Аппендаль, Ной Хоули) [2017 , Фантастика, боевик, драма , WEB-DLRip 1080p] [ Kravec , LostFilm , NewStudiо ,BaibaKo ,Kubik V Kube , English] + [Subs... Враг Нароода 22.29 GB
Показать сообщения:    

Текущее время: Сегодня 19:25

Часовой пояс: GMT



Вы не можете начинать темы
Вы не можете отвечать на сообщения
Вы не можете редактировать свои сообщения
Вы не можете удалять свои сообщения
Вы не можете голосовать в опросах
Вы не можете прикреплять файлы к сообщениям
Вы не можете скачивать файлы