Фантазия / Fantasia (Сэмюэль Армстронг / Samuel Armstrong, Джеймс Алгар / James Algar) [1940, мультфильм, DVD5] DVD-Магия, MVO + ENG

 
Автор Сообщение

sergej644 ®

Пол:

Стаж: 4 года 11 месяцев

Сообщений: 6042

Откуда: Soviet Union



Награды: Нет

Торрент-статистика

Создавать темы 27-Июн-2015 11:32

[Цитировать]

Фантазия / Fantasia
Страна: США
Жанр: мультфильм
Продолжительность: 01:58:42
Год выпуска: 1940
Перевод: Профессиональный (многоголосый закадровый) DVD-Магия
Русские субтитры: нет
Режиссёр: Сэмюэль Армстронг/Samuel Armstrong, Джеймс Алгар/James Algar
Описание: «Фантазия» - музыкальный мультфильм и третий по счёту классический мультфильм компании Уолта Диснея. Каждая из частей фильма выполнена в собственной стилистике и сюжетно самостоятельна, а в качестве связующих звеньев между ними выступают небольшие киновставки с участием Филадельфийского оркестра под руководством Леопольда Стоковского. Каждый эпизод начинается с оркестрового вступления. Фильм начинается как спектакль: в полумраке поднимается занавес, на синем фоне проявляются силуэты музыкантов, сопровождаемые шумом настраиваемых инструментов. Рассказчик приветствует зрителей. Пока он рассказывает зрителям о трёх типах музыки, постепенно проясняется звучание инструментов и их звучание сливается в гармонию. Три типа музыки — повествовательная, рассказывающая историю, иллюстративная (фоновая) и абсолютная, существующая ради себя самой.
Доп. материалы: Отсутствуют
Доп. информация:: Издание DVD-Магии
Качество: DVD5
Формат: DVD-video
Видео: PAL 4:3 (720x576) VBR 4183 kbps
Аудио: Russian - Dolby AC3, 6 ch, 384 kbps
Аудио 2: English - Dolby AC3, 6 ch, 384 kbps
Субтитры: Отсутствуют

DVDInfo

Title: FANTACIASize: 4.23 Gb ( 4 440 112,00 KBytes ) - DVD-5Enabled regions: 1, 2, 3, 4, 5, 6, 7, 8
VTS_01 : Play Length: 00:00:12 Video: PAL 4:3 (720x576) VBR Audio: Russian (Dolby AC3, 6 ch)
VTS_02 : Play Length: 00:00:15 Video: PAL 4:3 (720x576) VBR Audio: Russian (Dolby AC3, 2 ch)
VTS_03 : Play Length: 00:00:08 Video: PAL 4:3 (720x576) VBR Audio: Russian (Dolby AC3, 6 ch)
VTS_04 : Play Length: 01:58:42 Video: PAL 4:3 (720x576) VBR Audio: Russian, AC3, 3/2 (L,C,R,SL,SR)+LFE ch, 384 kbps, Delay 380 mSec English, AC3, 3/2 (L,C,R,SL,SR)+LFE ch, 384 kbps, Delay 380 mSec
* Menus Information *
VIDEO_TS MenuVideo: PAL 4:3 (720x576) VBREnglish Language Unit : Title Menu
VTS_01 MenuVideo: PAL 4:3 (720x576) VBRAudio: Not specified (Dolby AC3, 2 ch)English Language Unit : Root Menu
VTS_02 MenuVideo: PAL 4:3 (720x576) VBREnglish Language Unit : Root Menu
VTS_03 MenuVideo: PAL 4:3 (720x576) VBREnglish Language Unit : Root Menu
VTS_04 MenuVideo: PAL 4:3 (720x576) VBREnglish Language Unit : Root Menu

MediaInfo

Полное имя : C:\Users\FANTACIA\VIDEO_TS\VTS_01_0.VOBФормат : MPEG-PSРазмер файла : 15,2 МбайтПродолжительность : 1 м. 2 с.Режим общего битрейта : ПеременныйОбщий поток : 2054 Кбит/сек
ВидеоИдентификатор : 224 (0xE0)Формат : MPEG VideoВерсия формата : Version 2Профиль формата : Main@MainПараметр BVOP формата : НетПараметр матрицы формата : ВыборочнаяПараметр GOP формата : N=1Продолжительность : 40 мс.Вид битрейта : ПеременныйБитрейт : 1821 Кбит/секМаксимальный битрейт : 8000 Кбит/секШирина : 720 пикселейВысота : 576 пикселейСоотношение сторон : 4:3Частота кадров : 25,000 кадров/секСтандарт вещания : PALЦветовое пространство : YUVСубдискретизация насыщенности : 4:2:0Битовая глубина : 8 битТип развёртки : ПрогрессивнаяПорядок развёртки : Верхнее поле первоеМетод сжатия : С потерямиБит/(Пиксели*Кадры) : 0.176Размер потока : 8,89 Кбайт (0%)Основные цвета : BT.601 PALХарактеристики трансфера : BT.470 System B, BT.470 System GКоэффициенты матрицы : BT.601
АудиоИдентификатор : 189 (0xBD)-128 (0x80)Формат : AC-3Формат/Информация : Audio Coding 3Расширение режима : CM (complete main)Параметр Endianness формата : BigРежим смешивания : DVD-VideoПродолжительность : 1 м. 2 с.Вид битрейта : ПостоянныйБитрейт : 192 Кбит/секКаналы : 2 каналаРасположение каналов : Front: L RЧастота : 48,0 КГцБитовая глубина : 16 битМетод сжатия : С потерямиРазмер потока : 1,42 Мбайт (9%)
ТекстИдентификатор : 189 (0xBD)-32 (0x20)Формат : RLEФормат/Информация : Run-length encodingРежим смешивания : DVD-Video
Меню
ОбщееПолное имя : C:\Users\FANTACIA\VIDEO_TS\VTS_01_1.VOBФормат : MPEG-PSРазмер файла : 13,6 МбайтПродолжительность : 12 с.Общий поток : 9534 Кбит/сек
ВидеоИдентификатор : 224 (0xE0)Формат : MPEG VideoВерсия формата : Version 2Профиль формата : Main@MainПараметр BVOP формата : ДаПараметр матрицы формата : ВыборочнаяПараметр GOP формата : M=3, N=15Продолжительность : 12 с.Битрейт : 9000 Кбит/секШирина : 720 пикселейВысота : 576 пикселейСоотношение сторон : 4:3Частота кадров : 25,000 кадров/секСтандарт вещания : PALЦветовое пространство : YUVСубдискретизация насыщенности : 4:2:0Битовая глубина : 8 битТип развёртки : ЧересстрочнаяПорядок развёртки : Верхнее поле первоеМетод сжатия : С потерямиБит/(Пиксели*Кадры) : 0.868TimeCode_FirstFrame : 00:00:00:00TimeCode_Source : Group of pictures headerРазмер потока : 12,8 Мбайт (94%)
АудиоИдентификатор : 189 (0xBD)-128 (0x80)Формат : AC-3Формат/Информация : Audio Coding 3Расширение режима : CM (complete main)Параметр Endianness формата : BigРежим смешивания : DVD-VideoПродолжительность : 11 с.Вид битрейта : ПостоянныйБитрейт : 384 Кбит/секКаналы : 6 каналовРасположение каналов : Front: L C R, Side: L R, LFEЧастота : 48,0 КГцБитовая глубина : 16 битМетод сжатия : С потерямиРазмер потока : 561 Кбайт (4%)
ОбщееПолное имя : C:\Users\FANTACIA\VIDEO_TS\VTS_02_0.VOBФормат : MPEG-PSРазмер файла : 154 КбайтПродолжительность : 520 мс.Общий поток : 2426 Кбит/сек
ВидеоИдентификатор : 224 (0xE0)Формат : MPEG VideoВерсия формата : Version 2Профиль формата : Main@MainПараметр BVOP формата : ДаПараметр матрицы формата : ВыборочнаяПродолжительность : 520 мс.Максимальный битрейт : 2000 Кбит/секШирина : 720 пикселейВысота : 576 пикселейСоотношение сторон : 4:3Частота кадров : 25,000 кадров/секСтандарт вещания : PALЦветовое пространство : YUVСубдискретизация насыщенности : 4:2:0Битовая глубина : 8 битТип развёртки : ЧересстрочнаяПорядок развёртки : Верхнее поле первоеМетод сжатия : С потерямиTimeCode_FirstFrame : 00:00:00:00TimeCode_Source : Group of pictures header
ТекстИдентификатор : 189 (0xBD)-32 (0x20)Формат : RLEФормат/Информация : Run-length encodingРежим смешивания : DVD-VideoЗадержка видео : -80 мс.
Меню
ОбщееПолное имя : C:\Users\FANTACIA\VIDEO_TS\VTS_02_1.VOBФормат : MPEG-PSРазмер файла : 11,3 МбайтПродолжительность : 15 с.Общий поток : 6309 Кбит/сек
ВидеоИдентификатор : 224 (0xE0)Формат : MPEG VideoВерсия формата : Version 2Профиль формата : Main@MainПараметр BVOP формата : ДаПараметр матрицы формата : ВыборочнаяПараметр GOP формата : M=3, N=12Продолжительность : 15 с.Битрейт : 6000 Кбит/секШирина : 720 пикселейВысота : 576 пикселейСоотношение сторон : 4:3Частота кадров : 25,000 кадров/секСтандарт вещания : PALЦветовое пространство : YUVСубдискретизация насыщенности : 4:2:0Битовая глубина : 8 битТип развёртки : ЧересстрочнаяПорядок развёртки : Верхнее поле первоеМетод сжатия : С потерямиБит/(Пиксели*Кадры) : 0.579TimeCode_FirstFrame : 00:00:00:00TimeCode_Source : Group of pictures headerРазмер потока : 10,7 Мбайт (95%)
АудиоИдентификатор : 189 (0xBD)-128 (0x80)Формат : AC-3Формат/Информация : Audio Coding 3Расширение режима : CM (complete main)Параметр Endianness формата : BigРежим смешивания : DVD-VideoПродолжительность : 14 с.Вид битрейта : ПостоянныйБитрейт : 192 Кбит/секКаналы : 2 каналаРасположение каналов : Front: L RЧастота : 48,0 КГцБитовая глубина : 16 битМетод сжатия : С потерямиРазмер потока : 350 Кбайт (3%)
ОбщееПолное имя : C:\Users\FANTACIA\VIDEO_TS\VTS_03_0.VOBФормат : MPEG-PSРазмер файла : 154 КбайтПродолжительность : 520 мс.Общий поток : 2426 Кбит/сек
ВидеоИдентификатор : 224 (0xE0)Формат : MPEG VideoВерсия формата : Version 2Профиль формата : Main@MainПараметр BVOP формата : ДаПараметр матрицы формата : ВыборочнаяПродолжительность : 520 мс.Максимальный битрейт : 2000 Кбит/секШирина : 720 пикселейВысота : 576 пикселейСоотношение сторон : 4:3Частота кадров : 25,000 кадров/секСтандарт вещания : PALЦветовое пространство : YUVСубдискретизация насыщенности : 4:2:0Битовая глубина : 8 битТип развёртки : ЧересстрочнаяПорядок развёртки : Верхнее поле первоеМетод сжатия : С потерямиTimeCode_FirstFrame : 00:00:00:00TimeCode_Source : Group of pictures header
ТекстИдентификатор : 189 (0xBD)-32 (0x20)Формат : RLEФормат/Информация : Run-length encodingРежим смешивания : DVD-VideoЗадержка видео : -80 мс.
Меню
ОбщееПолное имя : C:\Users\FANTACIA\VIDEO_TS\VTS_03_1.VOBФормат : MPEG-PSРазмер файла : 5,24 МбайтПродолжительность : 8 с. 0 мс.Общий поток : 5493 Кбит/сек
ВидеоИдентификатор : 224 (0xE0)Формат : MPEG VideoВерсия формата : Version 2Профиль формата : Main@MainПараметр BVOP формата : ДаПараметр матрицы формата : ВыборочнаяПараметр GOP формата : M=3, N=15Продолжительность : 8 с. 0 мс.Битрейт : 5000 Кбит/секШирина : 720 пикселейВысота : 576 пикселейСоотношение сторон : 4:3Частота кадров : 25,000 кадров/секСтандарт вещания : PALЦветовое пространство : YUVСубдискретизация насыщенности : 4:2:0Битовая глубина : 8 битТип развёртки : ЧересстрочнаяПорядок развёртки : Верхнее поле первоеМетод сжатия : С потерямиБит/(Пиксели*Кадры) : 0.482TimeCode_FirstFrame : 00:00:00:00TimeCode_Source : Group of pictures headerРазмер потока : 4,77 Мбайт (91%)
АудиоИдентификатор : 189 (0xBD)-128 (0x80)Формат : AC-3Формат/Информация : Audio Coding 3Расширение режима : CM (complete main)Параметр Endianness формата : BigРежим смешивания : DVD-VideoПродолжительность : 7 с. 968 мс.Вид битрейта : ПостоянныйБитрейт : 384 Кбит/секКаналы : 6 каналовРасположение каналов : Front: L C R, Side: L R, LFEЧастота : 48,0 КГцБитовая глубина : 16 битМетод сжатия : С потерямиРазмер потока : 374 Кбайт (7%)
ОбщееПолное имя : C:\Users\FANTACIA\VIDEO_TS\VTS_04_0.VOBФормат : MPEG-PSРазмер файла : 154 КбайтПродолжительность : 520 мс.Общий поток : 2426 Кбит/сек
ВидеоИдентификатор : 224 (0xE0)Формат : MPEG VideoВерсия формата : Version 2Профиль формата : Main@MainПараметр BVOP формата : ДаПараметр матрицы формата : ВыборочнаяПродолжительность : 520 мс.Максимальный битрейт : 2000 Кбит/секШирина : 720 пикселейВысота : 576 пикселейСоотношение сторон : 4:3Частота кадров : 25,000 кадров/секСтандарт вещания : PALЦветовое пространство : YUVСубдискретизация насыщенности : 4:2:0Битовая глубина : 8 битТип развёртки : ЧересстрочнаяПорядок развёртки : Верхнее поле первоеМетод сжатия : С потерямиTimeCode_FirstFrame : 00:00:00:00TimeCode_Source : Group of pictures header
ТекстИдентификатор : 189 (0xBD)-32 (0x20)Формат : RLEФормат/Информация : Run-length encodingРежим смешивания : DVD-VideoЗадержка видео : -80 мс.
Меню
ОбщееПолное имя : C:\Users\FANTACIA\VIDEO_TS\VTS_04_1.VOBФормат : MPEG-PSРазмер файла : 1024 МбайтПродолжительность : 28 м.Режим общего битрейта : ПеременныйОбщий поток : 5052 Кбит/сек
ВидеоИдентификатор : 224 (0xE0)Формат : MPEG VideoВерсия формата : Version 2Профиль формата : Main@MainПараметр BVOP формата : ДаПараметр матрицы формата : ВыборочнаяПараметр GOP формата : VariableПродолжительность : 28 м.Вид битрейта : ПеременныйБитрейт : 4183 Кбит/секМаксимальный битрейт : 7000 Кбит/секШирина : 720 пикселейВысота : 576 пикселейСоотношение сторон : 4:3Частота кадров : 25,000 кадров/секСтандарт вещания : PALЦветовое пространство : YUVСубдискретизация насыщенности : 4:2:0Битовая глубина : 8 битТип развёртки : ЧересстрочнаяПорядок развёртки : Верхнее поле первоеМетод сжатия : С потерямиБит/(Пиксели*Кадры) : 0.403TimeCode_FirstFrame : 00:00:18:21TimeCode_Source : Group of pictures headerРазмер потока : 848 Мбайт (83%)
Аудио #1Идентификатор : 189 (0xBD)-128 (0x80)Формат : AC-3Формат/Информация : Audio Coding 3Расширение режима : CM (complete main)Параметр Endianness формата : BigРежим смешивания : DVD-VideoПродолжительность : 28 м.Вид битрейта : ПостоянныйБитрейт : 384 Кбит/секКаналы : 6 каналовРасположение каналов : Front: L C R, Side: L R, LFEЧастота : 48,0 КГцБитовая глубина : 16 битМетод сжатия : С потерямиЗадержка видео : 301 мс.Размер потока : 77,8 Мбайт (8%)
Аудио #2Идентификатор : 189 (0xBD)-129 (0x81)Формат : AC-3Формат/Информация : Audio Coding 3Расширение режима : CM (complete main)Параметр Endianness формата : BigРежим смешивания : DVD-VideoПродолжительность : 28 м.Вид битрейта : ПостоянныйБитрейт : 384 Кбит/секКаналы : 6 каналовРасположение каналов : Front: L C R, Side: L R, LFEЧастота : 48,0 КГцБитовая глубина : 16 битМетод сжатия : С потерямиЗадержка видео : 301 мс.Размер потока : 77,8 Мбайт (8%)
Меню
ОбщееПолное имя : C:\Users\FANTACIA\VIDEO_TS\VTS_04_2.VOBФормат : MPEG-PSРазмер файла : 1024 МбайтПродолжительность : 28 м.Режим общего битрейта : ПеременныйОбщий поток : 5042 Кбит/сек
ВидеоИдентификатор : 224 (0xE0)Формат : MPEG VideoВерсия формата : Version 2Профиль формата : Main@MainПараметр BVOP формата : ДаПараметр матрицы формата : ВыборочнаяПараметр GOP формата : M=3, N=15Продолжительность : 28 м.Вид битрейта : ПеременныйБитрейт : 4174 Кбит/секМаксимальный битрейт : 7000 Кбит/секШирина : 720 пикселейВысота : 576 пикселейСоотношение сторон : 4:3Частота кадров : 25,000 кадров/секСтандарт вещания : PALЦветовое пространство : YUVСубдискретизация насыщенности : 4:2:0Битовая глубина : 8 битТип развёртки : ЧересстрочнаяПорядок развёртки : Верхнее поле первоеМетод сжатия : С потерямиБит/(Пиксели*Кадры) : 0.403TimeCode_FirstFrame : 00:28:39:12TimeCode_Source : Group of pictures headerРазмер потока : 847 Мбайт (83%)
Аудио #1Идентификатор : 189 (0xBD)-128 (0x80)Формат : AC-3Формат/Информация : Audio Coding 3Расширение режима : CM (complete main)Параметр Endianness формата : BigРежим смешивания : DVD-VideoПродолжительность : 28 м.Вид битрейта : ПостоянныйБитрейт : 384 Кбит/секКаналы : 6 каналовРасположение каналов : Front: L C R, Side: L R, LFEЧастота : 48,0 КГцБитовая глубина : 16 битМетод сжатия : С потерямиЗадержка видео : -595 мс.Размер потока : 78,0 Мбайт (8%)
Аудио #2Идентификатор : 189 (0xBD)-129 (0x81)Формат : AC-3Формат/Информация : Audio Coding 3Расширение режима : CM (complete main)Параметр Endianness формата : BigРежим смешивания : DVD-VideoПродолжительность : 28 м.Вид битрейта : ПостоянныйБитрейт : 384 Кбит/секКаналы : 6 каналовРасположение каналов : Front: L C R, Side: L R, LFEЧастота : 48,0 КГцБитовая глубина : 16 битМетод сжатия : С потерямиЗадержка видео : -595 мс.Размер потока : 78,0 Мбайт (8%)
Меню
ОбщееПолное имя : C:\Users\FANTACIA\VIDEO_TS\VTS_04_3.VOBФормат : MPEG-PSРазмер файла : 1024 МбайтПродолжительность : 28 м.Режим общего битрейта : ПеременныйОбщий поток : 5085 Кбит/сек
ВидеоИдентификатор : 224 (0xE0)Формат : MPEG VideoВерсия формата : Version 2Профиль формата : Main@MainПараметр BVOP формата : ДаПараметр матрицы формата : ВыборочнаяПараметр GOP формата : M=3, N=15Продолжительность : 28 м.Вид битрейта : ПеременныйБитрейт : 4216 Кбит/секМаксимальный битрейт : 7000 Кбит/секШирина : 720 пикселейВысота : 576 пикселейСоотношение сторон : 4:3Частота кадров : 25,000 кадров/секСтандарт вещания : PALЦветовое пространство : YUVСубдискретизация насыщенности : 4:2:0Битовая глубина : 8 битТип развёртки : ЧересстрочнаяПорядок развёртки : Верхнее поле первоеМетод сжатия : С потерямиБит/(Пиксели*Кадры) : 0.407TimeCode_FirstFrame : 00:57:02:19TimeCode_Source : Group of pictures headerРазмер потока : 849 Мбайт (83%)
Аудио #1Идентификатор : 189 (0xBD)-128 (0x80)Формат : AC-3Формат/Информация : Audio Coding 3Расширение режима : CM (complete main)Параметр Endianness формата : BigРежим смешивания : DVD-VideoПродолжительность : 28 м.Вид битрейта : ПостоянныйБитрейт : 384 Кбит/секКаналы : 6 каналовРасположение каналов : Front: L C R, Side: L R, LFEЧастота : 48,0 КГцБитовая глубина : 16 битМетод сжатия : С потерямиЗадержка видео : -259 мс.Размер потока : 77,3 Мбайт (8%)
Аудио #2Идентификатор : 189 (0xBD)-129 (0x81)Формат : AC-3Формат/Информация : Audio Coding 3Расширение режима : CM (complete main)Параметр Endianness формата : BigРежим смешивания : DVD-VideoПродолжительность : 28 м.Вид битрейта : ПостоянныйБитрейт : 384 Кбит/секКаналы : 6 каналовРасположение каналов : Front: L C R, Side: L R, LFEЧастота : 48,0 КГцБитовая глубина : 16 битМетод сжатия : С потерямиЗадержка видео : -291 мс.Размер потока : 77,3 Мбайт (8%)
Меню
ОбщееПолное имя : C:\Users\FANTACIA\VIDEO_TS\VTS_04_4.VOBФормат : MPEG-PSРазмер файла : 1024 МбайтПродолжительность : 28 м.Режим общего битрейта : ПеременныйОбщий поток : 5042 Кбит/сек
ВидеоИдентификатор : 224 (0xE0)Формат : MPEG VideoВерсия формата : Version 2Профиль формата : Main@MainПараметр BVOP формата : ДаПараметр матрицы формата : ВыборочнаяПараметр GOP формата : M=3, N=15Продолжительность : 28 м.Вид битрейта : ПеременныйБитрейт : 4174 Кбит/секМаксимальный битрейт : 7000 Кбит/секШирина : 720 пикселейВысота : 576 пикселейСоотношение сторон : 4:3Частота кадров : 25,000 кадров/секСтандарт вещания : PALЦветовое пространство : YUVСубдискретизация насыщенности : 4:2:0Битовая глубина : 8 битТип развёртки : ЧересстрочнаяПорядок развёртки : Верхнее поле первоеМетод сжатия : С потерямиБит/(Пиксели*Кадры) : 0.403TimeCode_FirstFrame : 01:25:12:06TimeCode_Source : Group of pictures headerРазмер потока : 848 Мбайт (83%)
Аудио #1Идентификатор : 189 (0xBD)-128 (0x80)Формат : AC-3Формат/Информация : Audio Coding 3Расширение режима : CM (complete main)Параметр Endianness формата : BigРежим смешивания : DVD-VideoПродолжительность : 28 м.Вид битрейта : ПостоянныйБитрейт : 384 Кбит/секКаналы : 6 каналовРасположение каналов : Front: L C R, Side: L R, LFEЧастота : 48,0 КГцБитовая глубина : 16 битМетод сжатия : С потерямиЗадержка видео : -619 мс.Размер потока : 78,0 Мбайт (8%)
Аудио #2Идентификатор : 189 (0xBD)-129 (0x81)Формат : AC-3Формат/Информация : Audio Coding 3Расширение режима : CM (complete main)Параметр Endianness формата : BigРежим смешивания : DVD-VideoПродолжительность : 28 м.Вид битрейта : ПостоянныйБитрейт : 384 Кбит/секКаналы : 6 каналовРасположение каналов : Front: L C R, Side: L R, LFEЧастота : 48,0 КГцБитовая глубина : 16 битМетод сжатия : С потерямиЗадержка видео : -619 мс.Размер потока : 78,0 Мбайт (8%)
Меню
ОбщееПолное имя : C:\Users\FANTACIA\VIDEO_TS\VTS_04_5.VOBФормат : MPEG-PSРазмер файла : 194 МбайтПродолжительность : 5 м. 26 с.Режим общего битрейта : ПеременныйОбщий поток : 4987 Кбит/сек
ВидеоИдентификатор : 224 (0xE0)Формат : MPEG VideoВерсия формата : Version 2Профиль формата : Main@MainПараметр BVOP формата : ДаПараметр матрицы формата : ВыборочнаяПараметр GOP формата : M=3, N=15Продолжительность : 5 м. 25 с.Вид битрейта : ПеременныйБитрейт : 4120 Кбит/секМаксимальный битрейт : 7000 Кбит/секШирина : 720 пикселейВысота : 576 пикселейСоотношение сторон : 4:3Частота кадров : 25,000 кадров/секСтандарт вещания : PALЦветовое пространство : YUVСубдискретизация насыщенности : 4:2:0Битовая глубина : 8 битТип развёртки : ЧересстрочнаяПорядок развёртки : Верхнее поле первоеМетод сжатия : С потерямиБит/(Пиксели*Кадры) : 0.397TimeCode_FirstFrame : 01:53:35:19TimeCode_Source : Group of pictures headerРазмер потока : 160 Мбайт (82%)
Аудио #1Идентификатор : 189 (0xBD)-128 (0x80)Формат : AC-3Формат/Информация : Audio Coding 3Расширение режима : CM (complete main)Параметр Endianness формата : BigРежим смешивания : DVD-VideoПродолжительность : 5 м. 26 с.Вид битрейта : ПостоянныйБитрейт : 384 Кбит/секКаналы : 6 каналовРасположение каналов : Front: L C R, Side: L R, LFEЧастота : 48,0 КГцБитовая глубина : 16 битМетод сжатия : С потерямиЗадержка видео : -587 мс.Размер потока : 14,9 Мбайт (8%)
Аудио #2Идентификатор : 189 (0xBD)-129 (0x81)Формат : AC-3Формат/Информация : Audio Coding 3Расширение режима : CM (complete main)Параметр Endianness формата : BigРежим смешивания : DVD-VideoПродолжительность : 5 м. 26 с.Вид битрейта : ПостоянныйБитрейт : 384 Кбит/секКаналы : 6 каналовРасположение каналов : Front: L C R, Side: L R, LFEЧастота : 48,0 КГцБитовая глубина : 16 битМетод сжатия : С потерямиЗадержка видео : -587 мс.Размер потока : 14,9 Мбайт (8%)

Скриншоты меню

[Профиль] [ЛС]
Кто просматривает тему:

Форум Тема Автор Размер
Фантастика, фэнтези "АнтиМиры. Фантастический боевик" (29 книг) (2012-2014) [FB2] Garik014 39 MB
Rock (Рок) Znaki - Покруче фантастики - 2015, MP3, 320 kbps достали все 126 MB
Фильмы 2011 года 1984 / Nineteen Eighty-Four (Майкл Редфорд) [1984 фантастика, триллер, драма, эротика, мелодрама DVDRip-AVC ] P2 oartemka178 2.05 GB
Классика зарубежного кино 20000 лье под водой / 20000 Leagues Under the Sea (Ричард Флайшер / Richard Fleischer) [1954, США, Фантастика, фэнтези, драма, приключения, WEB-DLRip] MVO (Светла) Russian Mafia 1.46 GB
Фильмы 2009 года 2012 / 2012 (Роланд Эммерих / Roland Emmerich) [2009, США, Канада, Боевик, приключения, драма, фантастика, BDRip-AVC] Dub + Sub Rus + Original Eng TorrentFilm 4.94 GB
Фильмы 2009 года 2012 / 2012 (Роланд Эммерих / Roland Emmerich) [2009, США, фантастика, боевик, приключения, BDRip] Dub + Sub (Rus) reversefile 1.46 GB
Фильмы 2011 года 2019: Новые варвары / I nuovi barbari (Энцо Дж. Кастеллари) [1983 г., фантастика, боевик, триллер, BDRip] [MVO] Bathory 1.46 GB
Фильмы 2014 года 2047 – Угроза смерти / 2047: Sights of Death (Алессандро Капоне) [2014, фантастика, боевик, триллер] HDRip | L1 BOSS 1.45 GB
Показать сообщения:    

Текущее время: Сегодня 14:30

Часовой пояс: GMT



Вы не можете начинать темы
Вы не можете отвечать на сообщения
Вы не можете редактировать свои сообщения
Вы не можете удалять свои сообщения
Вы не можете голосовать в опросах
Вы не можете прикреплять файлы к сообщениям
Вы не можете скачивать файлы