Фальсификатор / The Forger (2014) BDRip 1080p | L2

 
Автор Сообщение

достали все ®

Пол:

Стаж: 1 год 8 месяцев

Сообщений: 6565



Награды: 12 (Подробнее)

Mega Releaser 2 (Количество: 1) За внесенный вклад в развитие сайта (Количество: 1) Top Releaser 4 (Количество: 1)
Торрент-статистика

Создавать темы 14-Сен-2016 14:46

[Цитировать]

Фальсификатор / The Forger
Страна: США
Производство: Code Entertainment, Freedom Media, Saban Films, Solution Entertainment Group
Год выпуска: 2014
Жанр: триллер, драма, криминал
Продолжительность: 01:35:30
Режиссер: Филип Мартин
Автор сценария: Ричард Д’Овидио
В ролях: Джон Траволта, Кристофер Пламмер, Тай Шеридан, Эбигейл Спенсер, Энсон Маунт, Маркус Томас, Дженнифер Или, Трэвис Аарон
Описание: Главный герой фильма — Рэй Каттер — художник от бога и мошенник во втором поколении. Он договаривается о досрочном освобождении из тюремного заключения, чтобы «уйти на покой» и наладить отношения с семьёй. В обмен за помощь с выходом из тюрьмы он должен выполнить ещё одну работу, сделать подделку, которой до него ещё никто никогда не делал...

Перевод: Любительский (двухголосый) | Студия Пиратского Дубляжа
Субтитры: русские, английские-Качество: BDRip 1080p
Формат: MKV
Видео кодек: AVC
Аудио кодек: АС3 | DTS
Видео: 1920x804 (2.40:1), 24.000 fps, MPEG-4 AVC ~10.6 Мbps avg
Аудио №1: 48.0 kHz, AC3 Dolby Digital, 3/2 (L,C,R,l,r) + LFE ch, ~448 kbps | RUS / DVO
Аудио №2: 48.0 kHz, Digital Theater Systems, 3/2 (L,C,R,l,r) + LFE ch, ~1509 kbps | ENG
Формат субтитров: UTF-8 Plain Text
Дата премьеры (мир): 12 сентября 2014

Media Info

General
Уникальный идентификатор : 253216521192835683407897948666103302057 (0xBE7FBA62006488D9A68B0BD45D7B87A9)
Полное имя : Фальсификатор (2014) BDRip 1080p.mkv
Формат : Matroska
Версия формата : Version 2
Размер файла : 8,56 Гбайт
Продолжительность : 1 ч. 35 м.
Общий поток : 12,8 Мбит/сек
Дата кодирования : UTC 2016-09-14 08:45:33
Программа кодирования : mkvmerge v4.0.0 ('The Stars were mine') сборка от Jun 6 2010 16:18:42
Библиотека кодирования : libebml v1.0.0 + libmatroska v1.0.0
Видео
Идентификатор : 1
Формат : AVC
Формат/Информация : Advanced Video Codec
Профиль формата : High@L4.1
Параметр CABAC формата : Да
Параметр ReFrames формата : 4 кадра
Идентификатор кодека : V_MPEG4/ISO/AVC
Продолжительность : 1 ч. 35 м.
Битрейт : 10,6 Мбит/сек
Номинальный битрейт : 11,5 Мбит/сек
Ширина : 1920 пикселей
Высота : 804 пикселя
Соотношение сторон : 2,40:1
Режим частоты кадров : Постоянный
Частота кадров : 24,000 кадра/сек
Цветовое пространство : YUV
Субдискретизация насыщенности : 4:2:0
Битовая глубина : 8 бит
Тип развёртки : Прогрессивная
Бит/(Пиксели*Кадры) : 0.287
Размер потока : 7,09 Гбайт (83%)
Библиотека кодирования : x264 core 144 r96 40bb568
Настройки программы : cabac=1 / ref=4 / deblock=1:-2:-2 / analyse=0x3:0x113 / me=umh / subme=7 / psy=1 / psy_rd=1.00:0.15 / mixed_ref=1 / me_range=16 / chroma_me=1 / trellis=1 / 8x8dct=1 / cqm=0 / deadzone=21,11 / fast_pskip=1 / chroma_qp_offset=-3 / threads=12 / lookahead_threads=3 / sliced_threads=0 / nr=0 / decimate=1 / interlaced=0 / bluray_compat=0 / constrained_intra=0 / bframes=3 / b_pyramid=2 / b_adapt=2 / b_bias=0 / direct=3 / weightb=1 / open_gop=0 / weightp=2 / keyint=250 / keyint_min=25 / scenecut=40 / intra_refresh=0 / rc_lookahead=50 / rc=abr / mbtree=1 / bitrate=11500 / ratetol=1.0 / qcomp=0.60 / qpmin=0 / qpmax=69 / qpstep=4 / vbv_maxrate=31250 / vbv_bufsize=31250 / nal_hrd=none / filler=0 / ip_ratio=1.40 / aq=1:1.00
Язык : English
Default : Нет
Forced : Нет
Аудио #1
Идентификатор : 2
Формат : AC-3
Формат/Информация : Audio Coding 3
Расширение режима : CM (complete main)
Параметр Endianness формата : Big
Идентификатор кодека : A_AC3
Продолжительность : 1 ч. 35 м.
Вид битрейта : Постоянный
Битрейт : 448 Кбит/сек
Каналы : 6 каналов
Расположение каналов : Front: L C R, Side: L R, LFE
Частота : 48,0 КГц
Частота кадров : 31,250 кадров/сек (1536 spf)
Метод сжатия : С потерями
Размер потока : 306 Мбайт (3%)
Язык : Russian
Default : Да
Forced : Нет
Аудио #2
Идентификатор : 3
Формат : DTS
Формат/Информация : Digital Theater Systems
Режим : 16
Параметр Endianness формата : Big
Идентификатор кодека : A_DTS
Продолжительность : 1 ч. 35 м.
Вид битрейта : Постоянный
Битрейт : 1509 Кбит/сек
Каналы : 6 каналов
Расположение каналов : Front: L C R, Side: L R, LFE
Частота : 48,0 КГц
Частота кадров : 93,750 кадра/сек (512 spf)
Битовая глубина : 16 бит
Метод сжатия : С потерями
Задержка видео : 11 мс.
Размер потока : 1,01 Гбайт (12%)
Язык : English
Default : Нет
Forced : Нет
Текст #1
Идентификатор : 4
Формат : UTF-8
Идентификатор кодека : S_TEXT/UTF8
Идентификатор кодека/Информация : UTF-8 Plain Text
Язык : Russian
Default : Нет
Forced : Нет
Текст #2
Идентификатор : 5
Формат : UTF-8
Идентификатор кодека : S_TEXT/UTF8
Идентификатор кодека/Информация : UTF-8 Plain Text
Язык : English
Default : Нет
Forced : Нет
Меню
00:00:00.000 : en:Chapter 01
00:08:38.000 : en:Chapter 02
00:20:19.291 : en:Chapter 03
00:32:47.166 : en:Chapter 04
00:45:13.083 : en:Chapter 05
00:59:13.250 : en:Chapter 06
01:12:10.958 : en:Chapter 07
01:24:11.708 : en:Chapter 08

Скриншоты

[Профиль] [ЛС]
Показать сообщения:    

Текущее время: Сегодня 14:29

Часовой пояс: GMT



Вы не можете начинать темы
Вы не можете отвечать на сообщения
Вы не можете редактировать свои сообщения
Вы не можете удалять свои сообщения
Вы не можете голосовать в опросах
Вы не можете прикреплять файлы к сообщениям
Вы не можете скачивать файлы