Факультет / The Faculty (1998) BDRip 720p

 
Автор Сообщение

Белочка ®

Пол:

Стаж: 5 лет 1 месяц

Сообщений: 2089



Награды: 1 (Подробнее)

Girls (Количество: 1)
Торрент-статистика

Создавать темы 12-Окт-2014 10:31

[Цитировать]

Информация о фильме
Название: Факультет
Оригинальное название: The Faculty
Год выхода: 1998
Жанр: ужасы, фантастика, триллер, комедия, детектив
Режиссер: Роберт Родригес
В ролях: Джордана Брюстер, Клеа ДюВалл, Лаура Харрис, Джош Хартнетт, Шон Хэтоси, Сальма Хайек, Элайджа Вуд, Фамке Янссен, Пайпер Лори, Кристофер МакДональд
О фильме:
Колледж Хэррингтон давно утратил свою первозданность. Его обшарпанные коридоры ежедневно заполняет будущее Америки — одиночки и лидеры, пижоны и наркоманы, умники и кретины. Подобно подросткам везде и всюду, они ведут постоянную борьбу друг с другом.
Но однажды студенты делают ужасающее открытие: их преподаватели — пришельцы с другой планеты! Столкнувшись с вызовом, который они даже не могли себе вообразить, бывшие враги вынуждены объединиться, чтобы спастись от инопланетного вторжения…

Страна: США
Студия: Dimension Films, Los Hooligans Productions
Продолжительность: 01:44:11
Перевод: профессиональный двуголосый, авторский одноголосый, любительский одноголосый
Файл
Кодек: MPEG-4 AVC/H.264
Качество: BD 720p
Видео: 1280 x 720 (16:9), 5 242 kbps, 23.976 fps, 0.237 b/px
Звук:
Аудио # 1: DTS, 6 ch, 1 510 kbps, 48 000 Hz [двуголосый закадровый (лицензия (R5))]
Аудио # 2: AC3, 6 ch, 448 kbps, 48 000 Hz [авторский одноголосый закадровый (А. Гаврилов)]
Аудио # 3: DTS, 6 ch, 1 510 kbps, 48 000 Hz [авторский одноголосый закадровый (Ю. Живов)]
Аудио # 4: AC3, 2 ch, 192 kbps, 48 000 Hz [любительский одноголосый закадровый (диктор CDV)]
Аудио # 5: AC3, 2 ch, 256 kbps, 48 000 Hz [двуголосый закадровый ("Новый канал" - Украина)]
Аудио # 6: DTS, 6 ch, 1 510 kbps, 48 000 Hz [оригинальный]
Субтитры:
Вид субтитров: вшитые отключаемые
Язык субтитров: русские, английские

MediaInfo

Общее
Уникальный идентификатор : 234055393815739992682673860512419224813 (0xB0156DDD65C3EEBFBC6F262C0E511CED)
Полное имя : E:Video[1998] Факультет [BDRip - AVC - 1280 x 720].mkv
Формат : Matroska
Версия формата : Version 2
Размер файла : 7,77 Гбайт
Продолжительность : 1 ч. 44 м.
Общий поток : 10,7 Мбит/сек
Название фильма : Факультет / The Faculty (1998) [720p] BDRip
Дата кодирования : UTC 2014-10-10 19:01:58
Программа кодирования : mkvmerge v2.9.8 ('C'est le bon') built on Aug 13 2009 12:49:06
Библиотека кодирования : libebml v0.7.7 + libmatroska v0.8.1
Видео
Идентификатор : 1
Формат : AVC
Формат/Информация : Advanced Video Codec
Профиль формата : High@L4.1
Параметр CABAC формата : Да
Параметр ReFrames формата : 6 кадров
Идентификатор кодека : V_MPEG4/ISO/AVC
Продолжительность : 1 ч. 44 м.
Битрейт : 5242 Кбит/сек
Ширина : 1280 пикселей
Высота : 720 пикселей
Соотношение сторон : 16:9
Режим частоты кадров : Постоянный
Частота кадров : 23,976 кадра/сек
Цветовое пространство : YUV
Субдискретизация насыщенности : 4:2:0
Битовая глубина : 8 бит
Тип развёртки : Прогрессивная
Бит/(Пиксели*Кадры) : 0.237
Размер потока : 3,66 Гбайт (47%)
Заголовок : [1998] The Faculty [BDRip - AVC - 1280 x 720]
Библиотека кодирования : x264 core 79 r1332M 70f8869
Настройки программы : cabac=1 / ref=6 / deblock=1:-3:-3 / analyse=0x3:0x113 / me=umh / subme=10 / psy=1 / psy_rd=1.2:0.0 / mixed_ref=1 / me_range=32 / chroma_me=1 / trellis=2 / 8x8dct=1 / cqm=0 / deadzone=21,11 / chroma_qp_offset=-2 / threads=6 / nr=0 / decimate=1 / mbaff=0 / constrained_intra=0 / bframes=8 / b_pyramid=0 / b_adapt=2 / b_bias=0 / direct=3 / wpredb=1 / wpredp=2 / keyint=250 / keyint_min=25 / scenecut=40 / rc=2pass / mbtree=0 / bitrate=5242 / ratetol=1.0 / qcomp=0.60 / qpmin=10 / qpmax=51 / qpstep=4 / cplxblur=20.0 / qblur=0.5 / ip_ratio=1.40 / pb_ratio=1.30 / aq=1:1.00
Язык : English
Default : Да
Forced : Нет
Аудио #1
Идентификатор : 2
Формат : DTS
Формат/Информация : Digital Theater Systems
Режим : 16
Параметр Endianness формата : Big
Идентификатор кодека : A_DTS
Продолжительность : 1 ч. 44 м.
Вид битрейта : Постоянный
Битрейт : 1510 Кбит/сек
Каналы : 6 каналов
Расположение каналов : Front: L C R, Side: L R, LFE
Частота : 48,0 КГц
Битовая глубина : 24 бит
Метод сжатия : С потерями
Размер потока : 1,10 Гбайт (14%)
Заголовок : Двуголосый закадровый (лицензия (R5))
Язык : Russian
Default : Да
Forced : Нет
Аудио #2
Идентификатор : 3
Формат : AC-3
Формат/Информация : Audio Coding 3
Расширение режима : CM (complete main)
Параметр Endianness формата : Big
Идентификатор кодека : A_AC3
Продолжительность : 1 ч. 44 м.
Вид битрейта : Постоянный
Битрейт : 448 Кбит/сек
Каналы : 6 каналов
Расположение каналов : Front: L C R, Side: L R, LFE
Частота : 48,0 КГц
Битовая глубина : 16 бит
Метод сжатия : С потерями
Размер потока : 334 Мбайт (4%)
Заголовок : Одноголосый закадровый (А. Гаврилов)
Язык : Russian
Default : Нет
Forced : Нет
Аудио #3
Идентификатор : 4
Формат : DTS
Формат/Информация : Digital Theater Systems
Режим : 16
Параметр Endianness формата : Big
Идентификатор кодека : A_DTS
Продолжительность : 1 ч. 44 м.
Вид битрейта : Постоянный
Битрейт : 1510 Кбит/сек
Каналы : 6 каналов
Расположение каналов : Front: L C R, Side: L R, LFE
Частота : 48,0 КГц
Битовая глубина : 24 бит
Метод сжатия : С потерями
Размер потока : 1,10 Гбайт (14%)
Заголовок : Одноголосый закадровый (Ю. Живов)
Язык : Russian
Default : Нет
Forced : Нет
Аудио #4
Идентификатор : 5
Формат : AC-3
Формат/Информация : Audio Coding 3
Расширение режима : CM (complete main)
Параметр Endianness формата : Big
Идентификатор кодека : A_AC3
Продолжительность : 1 ч. 44 м.
Вид битрейта : Постоянный
Битрейт : 192 Кбит/сек
Каналы : 2 канала
Расположение каналов : Front: L R
Частота : 48,0 КГц
Битовая глубина : 16 бит
Метод сжатия : С потерями
Размер потока : 143 Мбайт (2%)
Заголовок : Одноголосый закадровый (диктор CDV)
Язык : Russian
Default : Нет
Forced : Нет
Аудио #5
Идентификатор : 6
Формат : AC-3
Формат/Информация : Audio Coding 3
Расширение режима : CM (complete main)
Параметр Endianness формата : Big
Идентификатор кодека : A_AC3
Продолжительность : 1 ч. 44 м.
Вид битрейта : Постоянный
Битрейт : 256 Кбит/сек
Каналы : 2 канала
Расположение каналов : Front: L R
Частота : 48,0 КГц
Битовая глубина : 16 бит
Метод сжатия : С потерями
Размер потока : 191 Мбайт (2%)
Заголовок : Двуголосый закадровый (Новый канал)
Язык : Ukrainian
Default : Нет
Forced : Нет
Аудио #6
Идентификатор : 7
Формат : DTS
Формат/Информация : Digital Theater Systems
Режим : 16
Параметр Endianness формата : Big
Идентификатор кодека : A_DTS
Продолжительность : 1 ч. 44 м.
Вид битрейта : Постоянный
Битрейт : 1509 Кбит/сек
Каналы : 6 каналов
Расположение каналов : Front: L C R, Side: L R, LFE
Частота : 48,0 КГц
Битовая глубина : 24 бит
Метод сжатия : С потерями
Размер потока : 1,10 Гбайт (14%)
Заголовок : Оригинальный
Язык : English
Default : Нет
Forced : Нет
Текст #1
Идентификатор : 8
Формат : UTF-8
Идентификатор кодека : S_TEXT/UTF8
Идентификатор кодека/Информация : UTF-8 Plain Text
Язык : Russian
Default : Нет
Forced : Нет
Текст #2
Идентификатор : 9
Формат : UTF-8
Идентификатор кодека : S_TEXT/UTF8
Идентификатор кодека/Информация : UTF-8 Plain Text
Язык : English
Default : Нет
Forced : Нет

Скриншоты

[Профиль] [ЛС]
Кто просматривает тему:

Показать сообщения:    

Текущее время: Сегодня 23:30

Часовой пояс: GMT



Вы не можете начинать темы
Вы не можете отвечать на сообщения
Вы не можете редактировать свои сообщения
Вы не можете удалять свои сообщения
Вы не можете голосовать в опросах
Вы не можете прикреплять файлы к сообщениям
Вы не можете скачивать файлы