Факап, или Хуже не бывает / Nicht mein Tag (2014) BDRip 720p | iTunes

 
Автор Сообщение

достали все ®

Пол:

Стаж: 1 год 8 месяцев

Сообщений: 6515



Награды: 12 (Подробнее)

Mega Seeder 3 (Количество: 1) За внесенный вклад в развитие сайта (Количество: 1) Top Releaser 2 (Количество: 1)
Торрент-статистика

Создавать темы 12-Июн-2015 10:15

[Цитировать]

Информация о фильме
Название: Факап, или Хуже не бывает
Оригинальное название: Nicht mein Tag
Год выхода: 2014
Категория: боевик, комедия, криминал, приключения
Режиссер: Петер Торварт
В ролях: Мориц Бляйбтрой, Аксель Штайн, Жасмин Герат, Анна Мария Мюэ, Неля Кипер, Бен Рюдингер, Касэм Ходжа, Беким Гури, Тобиас Нид, Максвелл Рихтер
О фильме: Тиль Райнер — банковский клерк 30-ти лет. Каждый новый день его жизни похож на предыдущий. Отношения с супругой больше напоминают привычку. Но неожиданно происходит то, что позволяет выбраться ему из повседневной рутины. Тиля захватывает в заложники грабитель банка, в котором наш герой узнает заявителя по кредиту — Наппо. Полиция разрабатывает план перехват, устанавливает блокпосты, поэтому Наппо решает спрятать заложника в багажник и исчезнуть с награбленным! Но все идет не по плану и Наппо скрывается вместе с Тиллем! После того как шок от случившегося немного проходит, Тиль забывает про какое-либо благоразумие и погружается с головой в приключения вместе со своим похитителем…

Выпущено: Германия
Продолжительность: 01:50:17
Озвучивание: Дублированное [iTunes]
Файл
Формат: MKV
Качество: BDRip 720p
Видео: 6212 kb/s, 1280x544
Аудио: Russian: AC3, 384 kb/s (6 ch) / German: AC3, 640 kb/s (6 ch)
Субтитры: German

MI

Format : Matroska
Format version : Version 4 / Version 2
File size : 5.69 GiB
Duration : 1h 50mn
Overall bit rate : 7 383 Kbps
Encoded date : UTC 2015-06-11 18:58:03
Writing application : mkvmerge v6.5.0 ('Isn't she lovely') built on Oct 20 2013 12:50:05
Writing library : libebml v1.3.0 + libmatroska v1.4.1
Video
ID : 1
Format : AVC
Format/Info : Advanced Video Codec
Format profile : High@L4.1
Format settings, CABAC : Yes
Format settings, ReFrames : 10 frames
Codec ID : V_MPEG4/ISO/AVC
Duration : 1h 50mn
Bit rate : 6 212 Kbps
Width : 1 280 pixels
Height : 544 pixels
Display aspect ratio : 2.35:1
Frame rate : 25.000 fps
Color space : YUV
Chroma subsampling : 4:2:0
Bit depth : 8 bits
Scan type : Progressive
Bits/(Pixel*Frame) : 0.357
Stream size : 4.79 GiB (84%)
Title : Nicht Mein Tag (2014)
Writing library : x264 core 144 r2525kMod 40bb568
Encoding settings : cabac=1 / ref=10 / deblock=1:-3:-3 / analyse=0x3:0x133 / me=umh / subme=10 / psy=1 / fade_compensate=0.00 / psy_rd=1.05:0.00 / mixed_ref=1 / me_range=24 / chroma_me=1 / trellis=2 / 8x8dct=1 / cqm=0 / deadzone=21,11 / fast_pskip=0 / chroma_qp_offset=-2 / threads=12 / lookahead_threads=2 / sliced_threads=0 / nr=0 / decimate=0 / interlaced=0 / bluray_compat=0 / constrained_intra=0 / fgo=0 / bframes=8 / b_pyramid=2 / b_adapt=2 / b_bias=0 / direct=3 / weightb=1 / open_gop=0 / weightp=2 / keyint=240 / keyint_min=23 / scenecut=40 / intra_refresh=0 / rc_lookahead=60 / rc=crf / mbtree=0 / crf=16.0000 / qcomp=0.60 / qpmin=0 / qpmax=69 / qpstep=4 / vbv_maxrate=62500 / vbv_bufsize=78125 / crf_max=0.0 / nal_hrd=none / filler=0 / ip_ratio=1.30 / pb_ratio=1.20 / aq=3:0.80
Language : German
Default : Yes
Forced : No
Audio #1
ID : 2
Format : AC-3
Format/Info : Audio Coding 3
Mode extension : CM (complete main)
Format settings, Endianness : Big
Codec ID : A_AC3
Duration : 1h 50mn
Bit rate mode : Constant
Bit rate : 384 Kbps
Channel(s) : 6 channels
Channel positions : Front: L C R, Side: L R, LFE
Sampling rate : 48.0 KHz
Bit depth : 16 bits
Compression mode : Lossy
Stream size : 303 MiB (5%)
Language : Russian
Default : Yes
Forced : No
Audio #2
ID : 3
Format : AC-3
Format/Info : Audio Coding 3
Mode extension : CM (complete main)
Format settings, Endianness : Big
Codec ID : A_AC3
Duration : 1h 50mn
Bit rate mode : Constant
Bit rate : 640 Kbps
Channel(s) : 6 channels
Channel positions : Front: L C R, Side: L R, LFE
Sampling rate : 48.0 KHz
Bit depth : 16 bits
Compression mode : Lossy
Stream size : 505 MiB (9%)
Language : German
Default : No
Forced : No
Text
ID : 4
Format : UTF-8
Codec ID : S_TEXT/UTF8
Codec ID/Info : UTF-8 Plain Text
Language : German
Default : No
Forced : No
Menu
00:00:00.000 : de:00:00:00.000
00:07:21.360 : de:00:07:21.360
00:15:47.040 : de:00:15:47.040
00:22:52.600 : de:00:22:52.600
00:30:56.040 : de:00:30:56.040
00:37:25.960 : de:00:37:25.960
00:45:21.840 : de:00:45:21.840
00:52:59.000 : de:00:52:59.000
01:01:33.640 : de:01:01:33.640
01:09:28.440 : de:01:09:28.440
01:15:51.920 : de:01:15:51.920
01:23:02.120 : de:01:23:02.120
01:31:39.560 : de:01:31:39.560
01:37:32.320 : de:01:37:32.320
01:44:16.800 : de:01:44:16.800
01:46:06.680 : de:01:46:06.680

Скриншоты

[Профиль] [ЛС]
Показать сообщения:    

Текущее время: Сегодня 05:00

Часовой пояс: GMT



Вы не можете начинать темы
Вы не можете отвечать на сообщения
Вы не можете редактировать свои сообщения
Вы не можете удалять свои сообщения
Вы не можете голосовать в опросах
Вы не можете прикреплять файлы к сообщениям
Вы не можете скачивать файлы