У холмов есть глаза / The Hills Have Eyes (Александр Ажа / Alexandre Aja) [США, 2006, ужасы, BDRip] [Unrated] VO (Яроцкий) + eng

 
Автор Сообщение

reversefile ®

Пол:

Стаж: 4 года 5 месяцев

Сообщений: 842

Откуда: ReverseFile.org



Награды: Нет

Торрент-статистика

Создавать темы 13-Авг-2014 10:03

[Цитировать]

У холмов есть глаза / The Hills Have Eyes [Unrated] Страна: США
Жанр: ужасы
Год выпуска: 2006
Продолжительность: 01:48:23
Перевод: Одноголосый закадровый Михаил 'kyberpunk' Яроцкий
Cубтитры: нет
Оригинальная аудиодорожка: английский
Режиссер: Александр Ажа / Alexandre Aja
В ролях: Аарон Стэнфорд, Кэтлин Куинлен, Винесса Шоу, Эмили де Рэйвин, Дэн Берд, Том Бауэр, Билли Драго, Роберт Джой, Тед Левайн, Десмонд Аскью, Эзра Баззингтон, Майкл Бэйли Смит
Описание: Путешествуя по Америке в доме на колесах, семейство Картеров, попав в аварию, оказывается в таинственной ядерной зоне, отрезанной от цивилизации. Однако со временем Картеры обнаруживают, что на этой вроде бы пустынной территории обитает кровожадная семейка мутантов, которые начинают вести охоту на них...- -Качество видео:BDRip
Формат видео: AVI
Видео: 720x304 (2.37:1), 23.976 fps, XviD build 65 ~1980 kbps avg, 0.38 bit/pixel
Аудио #1: 48 kHz, AC3 Dolby Digital, 3/2 (L,C,R,l,r) + LFE ch, ~448 kbps kyberpunk
Аудио #2: 48 kHz, AC3 Dolby Digital, 3/2 (L,C,R,l,r) + LFE ch, ~448 kbps english

MediaInfo

General
Complete name : D:\The.Hills.Have.Eyes..2006.Unrated.AVO.kyberpunk.avi
Format : AVI
Format/Info : Audio Video Interleave
Format profile : OpenDML
File size : 2.18 GiB
Duration : 1h 48mn
Overall bit rate : 2 884 Kbps
Movie name : U.Holmov.Est.Glaza.2006.Unrated.DUAL.BDRip.XviD.AC3.-HELLYWOOD
Writing application : VirtualDubMod 1.5.10.2 (build 2542/release)
Writing library : VirtualDubMod build 2542/release
Video
ID : 0
Format : MPEG-4 Visual
Format profile : Advanced Simple@L5
Format settings, BVOP : 2
Format settings, QPel : No
Format settings, GMC : No warppoints
Format settings, Matrix : Custom
Codec ID : XVID
Codec ID/Hint : XviD
Duration : 1h 48mn
Bit rate : 1 970 Kbps
Width : 720 pixels
Height : 304 pixels
Display aspect ratio : 2.35:1
Frame rate : 23.976 fps
Color space : YUV
Chroma subsampling : 4:2:0
Bit depth : 8 bits
Scan type : Progressive
Compression mode : Lossy
Bits/(Pixel*Frame) : 0.375
Stream size : 1.49 GiB (68%)
Writing library : XviD 65
Audio #1
ID : 1
Format : AC-3
Format/Info : Audio Coding 3
Mode extension : CM (complete main)
Codec ID : 2000
Duration : 1h 48mn
Bit rate mode : Constant
Bit rate : 448 Kbps
Channel(s) : 6 channels
Channel positions : Front: L C R, Side: L R, LFE
Sampling rate : 48.0 KHz
Bit depth : 16 bits
Compression mode : Lossy
Stream size : 347 MiB (16%)
Alignment : Split accross interleaves
Interleave, duration : 42 ms (1.00 video frame)
Interleave, preload duration : 500 ms
Audio #2
ID : 2
Format : AC-3
Format/Info : Audio Coding 3
Mode extension : CM (complete main)
Codec ID : 2000
Duration : 1h 48mn
Bit rate mode : Constant
Bit rate : 448 Kbps
Channel(s) : 6 channels
Channel positions : Front: L C R, Side: L R, LFE
Sampling rate : 48.0 KHz
Bit depth : 16 bits
Compression mode : Lossy
Stream size : 347 MiB (16%)
Alignment : Split accross interleaves
Interleave, duration : 42 ms (1.00 video frame)
Interleave, preload duration : 500 ms

Скриншоты

[Профиль] [ЛС]

Создавать темы 06-Авг-2015 23:19 (спустя 11 месяцев 24 дня)

Топик был перенесен из форума Фильмы до 2014 года в форум Фильмы до 2012 года
sergej644
 
Кто просматривает тему:

Показать сообщения:    

Текущее время: Сегодня 06:07

Часовой пояс: GMT



Вы не можете начинать темы
Вы не можете отвечать на сообщения
Вы не можете редактировать свои сообщения
Вы не можете удалять свои сообщения
Вы не можете голосовать в опросах
Вы не можете прикреплять файлы к сообщениям
Вы не можете скачивать файлы