У лужи (Сергей Алибеков) [1990, Пластилиновая анимация, WEBRip]

 
Автор Сообщение

TorrentFilm ®

Пол:

Стаж: 2 года

Сообщений: 7741



Награды: Нет

Торрент-статистика

Создавать темы 03-Янв-2016 00:05

[Цитировать]

У лужи
Страна: СССР
Жанр: Пластилиновая анимация
Продолжительность: 00:09:05
Год выпуска: 1990
Русские субтитры: нет
Режиссёр: Сергей Алибеков
Роли озвучивали: А.Джигарханян,
Описание: Эта смешная история, произошедшая у лужи с грязью, о свинье доказывающей соседскому барану что свиньи произошли от дельфинов, и у свиней с дельфинами столько общего что они родственники - морские. Может быть и баран морской родственник дельфина…
Доп. информация: „Узбекфильм“
Сценарий:В.Гусев
Директор:С.Аванесов
Оператор:В.Бахтеев
Раздача группы:
Качество: WEBRip
Формат: AVI
Видео: 384x288 (1.33:1), 25 fps, XviD build 64 ~312 kbps avg, 0.11 bit/pixel
Аудио: 22.050 kHz, MPEG Layer 3, 1 ch, ~32.00 kbps avg
Субтитры: нет

Подробные технические данные

Format : AVIFormat/Info : Audio Video InterleaveFile size : 23.1 MiBDuration : 9mn 5sOverall bit rate : 355 KbpsWriting application : VirtualDubMod 1.5.10.3 | www.virtualdub-fr.org || (build 2550/release)Writing library : VirtualDubMod build 2550/release
VideoID : 0Format : MPEG-4 VisualFormat profile : Advanced Simple@L5Format settings, BVOP : 2Format settings, QPel : NoFormat settings, GMC : No warppointsFormat settings, Matrix : CustomCodec ID : XVIDCodec ID/Hint : XviDDuration : 9mn 5sBit rate : 313 KbpsWidth : 384 pixelsHeight : 288 pixelsDisplay aspect ratio : 4:3Frame rate : 25.000 fpsColor space : YUVChroma subsampling : 4:2:0Bit depth : 8 bitsScan type : ProgressiveCompression mode : LossyBits/(Pixel*Frame) : 0.113Stream size : 20.3 MiB (88%)Writing library : XviD 64
AudioID : 1Format : MPEG AudioFormat version : Version 2Format profile : Layer 3Codec ID : 55Codec ID/Hint : MP3Duration : 9mn 5sBit rate mode : ConstantBit rate : 32.0 KbpsChannel(s) : 1 channelSampling rate : 22.05 KHzCompression mode : LossyStream size : 2.08 MiB (9%)Alignment : Split accross interleavesInterleave, duration : 40 ms (1.00 video frame)Interleave, preload duration : 500 msWriting library : LAME3.99.1UUUUUUUUUL

Скриншоты

[Профиль] [ЛС]
Кто просматривает тему:

Показать сообщения:    

Текущее время: Сегодня 16:56

Часовой пояс: GMT



Вы не можете начинать темы
Вы не можете отвечать на сообщения
Вы не можете редактировать свои сообщения
Вы не можете удалять свои сообщения
Вы не можете голосовать в опросах
Вы не можете прикреплять файлы к сообщениям
Вы не можете скачивать файлы