Учителя [01x01-08 из 08] (2013) DVDRip-AVC от New-Team | лицензия

 
Автор Сообщение

Белочка ®

Пол:

Стаж: 5 лет 1 месяц

Сообщений: 2089



Награды: 1 (Подробнее)

Girls (Количество: 1)
Торрент-статистика

Создавать темы 13-Окт-2014 17:59

[Цитировать]

«Обратно в школу, чтобы вернуть любовь» -Страна: Россия / ДТ Продакшн
Жанр: мелодрама
Год выпуска: 2013
Продолжительность: 00:50:00 / серия
Перевод: Не требуется
Cубтитры: нет
Оригинальная аудиодорожка: русский
Режиссер: Вартан Акопян
В ролях: Марк Богатырев, Ольга Красько, Ирина Розанова, Ваагн Симонян, Алексей Гришин, Сергей Аброскин, Валерий Баринов, Ольга Тумайкина, Елизавета Лотова, Алина Кушим...
Описание: Из-за скандала в прямом эфире известный телеведущий праймового ток-шоу покидает столицу и устраивается в подмосковную школу учителем литературы. Неудачная шутка во время выпуска ток-шоу «Поболтаем?» стоила его ведущему Арсению Платонову карьеры. Вчерашняя звезда, он возвращается к маме в небольшой подмосковный городок. Новый директор школы, которую десять лет назад заканчивал Арсений, рад встретить столь уважаемого и популярного человека в местном баре. И настойчиво приглашает Платонова в школу — провести несколько факультативов для старшеклассников на тему «Секреты успеха». В школе Арсений встречает свою бывшую одноклассницу Машу, первую красавицу школы, в которую был безответно влюблен. Сейчас она — скромная учительница начальной школы, одинокая, с двумя детьми… Арсений решает остаться на какое-то время в школе, чтобы наверстать упущенное и завоевать бывшую «королеву красоты» — он уверен, что в его нынешнем статусе телезвезды это будет проще простого…
-Качество: DVDRip-AVC / 2 x DVD9 R5 - лицензионные диски от «Парадиз / Активижен»
Формат: MKV
Видео: 720x576@1024x576 (16:9), 25.000 fps, MPEG-4 AVC ~ 1809 kbps avg, 0.174 bit/pixel
Аудио: 48 kHz, Dolby AC3, 2 ch, 192 kbps, русский
Раздача от:

MediaInfo

Общее
Полное имя : Uchitelya.2013.O.DVDRip-AVC_[New-Team]_by_keeper1.mkv
Формат : Matroska
Версия формата : Version 4 / Version 2
Размер файла : 738 Мбайт
Продолжительность : 50 м.
Общий поток : 2032 Кбит/сек
Дата кодирования : UTC 2014-10-13 12:26:32
Программа кодирования : mkvmerge v7.2.0 ('On Every Street') 64bit built on Sep 13 2014 15:52:10
Библиотека кодирования : libebml v1.3.0 + libmatroska v1.4.1
DURATION : 00:50:43.872000000
NUMBER_OF_FRAMES : 95121
NUMBER_OF_BYTES : 85228416
_STATISTICS_WRITING_APP : mkvmerge v7.2.0 ('On Every Street') 64bit built on Sep 13 2014 15:52:10
_STATISTICS_WRITING_DATE_UTC : 2014-10-13 12:26:32
_STATISTICS_TAGS : BPS DURATION NUMBER_OF_FRAMES NUMBER_OF_BYTES
Видео
Идентификатор : 1
Формат : AVC
Формат/Информация : Advanced Video Codec
Профиль формата : High@L4.1
Параметр CABAC формата : Да
Параметр ReFrames формата : 8 кадров
Идентификатор кодека : V_MPEG4/ISO/AVC
Продолжительность : 50 м.
Битрейт : 1809 Кбит/сек
Ширина : 720 пикселей
Высота : 576 пикселей
Соотношение сторон : 16:9
Режим частоты кадров : Постоянный
Частота кадров : 25,000 кадров/сек
Стандарт вещания : PAL
Цветовое пространство : YUV
Субдискретизация насыщенности : 4:2:0
Битовая глубина : 8 бит
Тип развёртки : Прогрессивная
Бит/(Пиксели*Кадры) : 0.174
Размер потока : 642 Мбайт (87%)
Библиотека кодирования : x264 core 138 r2356 a1d3d17
Настройки программы : cabac=1 / ref=8 / deblock=1:-2:-1 / analyse=0x3:0x113 / me=umh / subme=10 / psy=1 / psy_rd=1.00:0.05 / mixed_ref=1 / me_range=32 / chroma_me=1 / trellis=2 / 8x8dct=1 / cqm=0 / deadzone=21,11 / fast_pskip=0 / chroma_qp_offset=-3 / threads=6 / lookahead_threads=1 / sliced_threads=0 / nr=0 / decimate=0 / interlaced=0 / bluray_compat=0 / constrained_intra=0 / bframes=8 / b_pyramid=2 / b_adapt=2 / b_bias=0 / direct=3 / weightb=1 / open_gop=0 / weightp=2 / keyint=250 / keyint_min=25 / scenecut=40 / intra_refresh=0 / rc=2pass / mbtree=0 / bitrate=1809 / ratetol=1.0 / qcomp=0.60 / qpmin=0 / qpmax=69 / qpstep=4 / cplxblur=20.0 / qblur=0.5 / ip_ratio=1.40 / pb_ratio=1.30 / aq=1:1.00
Язык : Russian
Default : Да
Forced : Нет
DURATION : 00:50:43.880000000
NUMBER_OF_FRAMES : 76097
NUMBER_OF_BYTES : 687419055
_STATISTICS_WRITING_APP : mkvmerge v7.2.0 ('On Every Street') 64bit built on Sep 13 2014 15:52:10
_STATISTICS_WRITING_DATE_UTC : 2014-10-13 12:26:32
_STATISTICS_TAGS : BPS DURATION NUMBER_OF_FRAMES NUMBER_OF_BYTES
Аудио
Идентификатор : 2
Формат : AC-3
Формат/Информация : Audio Coding 3
Расширение режима : CM (complete main)
Параметр Endianness формата : Big
Идентификатор кодека : A_AC3
Продолжительность : 50 м.
Вид битрейта : Постоянный
Битрейт : 224 Кбит/сек
Каналы : 2 канала
Расположение каналов : Front: L R
Частота : 48,0 КГц
Битовая глубина : 16 бит
Метод сжатия : С потерями
Размер потока : 81,3 Мбайт (11%)
Язык : Russian
Default : Да
Forced : Нет

Скриншоты:

[Профиль] [ЛС]
Кто просматривает тему:

Форум Тема Автор Размер
Компьютерная литература Windows 10. Новейший самоучитель (Виталий Леонтьев) [2015, Компьютерная литература] Garik014 17 MB
Программы [Разное] Учитель-психопат v1.0 [Android 1.6+, RUS] TorrentFilm 4 MB
Научная и техническая литература Анна Зайцева | Вышивка лентами. Самый полный и понятный самоучитель (2015) [PDF] достали все 19 MB
Разная литература Аркадий Цавкелов - Китайский язык для начинающих. Самоучитель. Разговорник (+ MP3-CD) (2015) PDF, MP3 Монах 103 MB
Путешествия и приключения Артуро Перес-Реверте - Учитель фехтования (2016) MP3 Swager 509 MB
Компьютерная литература Виталий Леонтьев - Office 2016. Новейший самоучитель (2015) PDF Garik014 11 MB
Научная и техническая литература Виталий Леонтьев - Новейший самоучитель. Android для планшетов и смартфонов (2015) PDF достали все 10 MB
Компьютерная литература (Программирование) Волков В.Б. - Понятный самоучитель Excel [2010, PDF, RUS] TorrentFilm 8 MB
Показать сообщения:    

Текущее время: Сегодня 16:23

Часовой пояс: GMT



Вы не можете начинать темы
Вы не можете отвечать на сообщения
Вы не можете редактировать свои сообщения
Вы не можете удалять свои сообщения
Вы не можете голосовать в опросах
Вы не можете прикреплять файлы к сообщениям
Вы не можете скачивать файлы