Учитель физкультуры / Gym Teacher: The Movie (Пол Динелло / Paul Dinello) [2008, Канада, США, Комедия, SATRip] DVO (Нью Медиа)

 
Автор Сообщение

TorrentFilm ®

Пол:

Стаж: 1 год 11 месяцев

Сообщений: 7741



Награды: Нет

Торрент-статистика

Создавать темы 04-Апр-2015 00:02

[Цитировать]

Учитель физкультуры / Gym Teacher: The Movie
Страна: Канада, США
Студия: Nickelodeon Original Movie, Dolphin Entertainment
Жанр: Комедия
Год выпуска: 2008
Продолжительность: 01:31:31
Перевод: Профессиональный (двухголосый закадровый) Нью Медиа
Cубтитры: нет
Режиссер: Пол Динелло / Paul Dinello
В ролях: Крис Мелони, Дэвид Алан Гриер, Эми Седарис, Натан Кресс и другие.
Описание: Дэйв — учитель физкультуры в средней школе. Он мечтает прославиться и воспитать команду, которая смогла бы победить на олимпиаде. И все могло бы получиться, если бы не новый ученик — Роланд! Теперь придется попотеть, чтобы превратить слабого мальчика в шлеме в спортсмена!- -Качество видео: SATRip
Формат видео: AVI (Сэмпл)
Видео: 640x352 (1.82:1), 25 fps, XviD ~1000 kbps, 0.18 bit/pixel
Аудио: 48 kHz, MP3, 2 ch, ~128.00 kbps

MediaInfo

GeneralComplete name : Gym.Teacher.The.Movie_Olu6ka.aviFormat : AVIFormat/Info : Audio Video InterleaveFile size : 744 MiBDuration : 1h 31mnOverall bit rate : 1 136 KbpsWriting application : VirtualDubMod 1.5.10.3Writing library : VirtualDubMod build 2550/release
VideoID : 0Format : MPEG-4 VisualFormat profile : Advanced Simple@L5Format settings, BVOP : 1Format settings, QPel : NoFormat settings, GMC : No warppointsFormat settings, Matrix : CustomCodec ID : XVIDCodec ID/Hint : XviDDuration : 1h 31mnBit rate : 1 000 KbpsWidth : 640 pixelsHeight : 352 pixelsDisplay aspect ratio : 16:9Frame rate : 25.000 fpsColor space : YUVChroma subsampling : 4:2:0Bit depth : 8 bitsScan type : ProgressiveCompression mode : LossyBits/(Pixel*Frame) : 0.178Stream size : 655 MiB (88%)Writing library : XviD 73
AudioID : 1Format : MPEG AudioFormat version : Version 1Format profile : Layer 3Codec ID : 55Codec ID/Hint : MP3Duration : 1h 30mnBit rate mode : ConstantBit rate : 128 KbpsChannel count : 2 channelsSampling rate : 48.0 KHzCompression mode : LossyStream size : 82.6 MiB (11%)Alignment : Aligned on interleavesInterleave, duration : 41 ms (1.02 video frame)Interleave, preload duration : 504 msWriting library : LAME3.99rEncoding settings : -m s -V 4 -q 2 -lowpass 17 -b 128
Спасибо vedigo за исходник!Раздача от группы
[Профиль] [ЛС]

Создавать темы 06-Авг-2015 22:40 (спустя 4 месяца 2 дня)

Топик был перенесен из форума Фильмы до 2014 года в форум Фильмы до 2012 года
sergej644
 

Создавать темы 12-Июн-2016 08:51 (спустя 1 год 2 месяца)

Топик был перенесен из форума Фильмы 2011 года в форум Фильмы 2006-2008 года
Russian Mafia
 
Кто просматривает тему:

Форум Тема Автор Размер
Компьютерная литература Windows 10. Новейший самоучитель (Виталий Леонтьев) [2015, Компьютерная литература] Garik014 17 MB
Программы [Разное] Учитель-психопат v1.0 [Android 1.6+, RUS] TorrentFilm 4 MB
Научная и техническая литература Анна Зайцева | Вышивка лентами. Самый полный и понятный самоучитель (2015) [PDF] достали все 19 MB
Разная литература Аркадий Цавкелов - Китайский язык для начинающих. Самоучитель. Разговорник (+ MP3-CD) (2015) PDF, MP3 Монах 103 MB
Путешествия и приключения Артуро Перес-Реверте - Учитель фехтования (2016) MP3 Swager 509 MB
Компьютерная литература Виталий Леонтьев - Office 2016. Новейший самоучитель (2015) PDF Garik014 11 MB
Научная и техническая литература Виталий Леонтьев - Новейший самоучитель. Android для планшетов и смартфонов (2015) PDF достали все 10 MB
Компьютерная литература (Программирование) Волков В.Б. - Понятный самоучитель Excel [2010, PDF, RUS] TorrentFilm 8 MB
Показать сообщения:    

Текущее время: Сегодня 09:59

Часовой пояс: GMT



Вы не можете начинать темы
Вы не можете отвечать на сообщения
Вы не можете редактировать свои сообщения
Вы не можете удалять свои сообщения
Вы не можете голосовать в опросах
Вы не можете прикреплять файлы к сообщениям
Вы не можете скачивать файлы