Учитель и чудовища / Беспредел в средней школе / High School High (1996) WEB-DL 1080p | P, A

 
Автор Сообщение

Swager ®

Пол:

Стаж: 3 года

Сообщений: 1831



Награды: 4 (Подробнее)

Mega Seeder 1 (Количество: 1) За внесенный вклад в развитие сайта (Количество: 1) Mega Seeder 2 (Количество: 1)
Торрент-статистика

Создавать темы 08-Июл-2018 06:50

[Цитировать]

Информация о фильме
Название: Учитель и чудовища (Беспредел в средней школе)
Оригинальное название: High School High
Год выхода: 1996
Жанр: Комедия, криминал, мелодрама
Режиссер: Харт Бокнер
В ролях: Джон Ловиц, Тиа Каррере, Мехи Файфер, Гильермо Диаз, Джон Невилл, Мэлинда Уильямс, Брайан Хукс, Марко Родригес, Наташа Грегсон Вагнер, Луиз Флетчер
О фильме:
Прелестная комедия от представителя знаменитейшей троицы Цукер-Абрахамс-Цукер - Дэвида Цукера. Несмотря на то, что основным режиссером указан Харт Бокнер, фильм демонстрирует полный набор того, что составляет фирменный цуккеровско-абрахамский стиль: пародии на огромное количество фильмов, бесконечный поток гэгов и приколов, многоплановость эпизодов, отличную динамику в разворачивании событий фильма. На этот раз темой выбраны картины, в которых в бандитскую школу гетто для цветных приходит новый учитель и находит ключик к сердцу трудных "детишек". Ну а все эти наркоманы, убийцы, пьяницы и хулиганы, конечно же, только и ждали, чтобы кто-нибудь протянул им руку помощи, понимания и сочувствия. Таким учителем оказался мистер Кларк. Ему помогает прекрасная администраторша, а в роли директрисы с неизменной дубинкой в руке снялась незабываемая Луиз Флетчер из знаменитой "Кукушки". Однако в процессе этого ужасно веселого "образования", становиться ясно, что не он учит детей, а скорее наоборот. Но достаточно подучившись и набив не мало шишек, он теперь и сам не так уж беспомощен, и его уже на "мякине" не проведешь.

Страна: США
Студия: TriStar Pictures
Продолжительность: 01:25:21
Перевод: Профессиональный многоголосый, авторский
Файл
Кодек: x264
Качество: WEB-DL 1080p
Видео: MPEG-4 AVC, 13.0 Mбит/с, 1920x1080
Звук #1: AC3, 6 ch, 448 Кбит/с | MVO
Звук #2: AC3, 2 ch, 160 Кбит/с | MVO (Видеосервис)
Звук #3: AC3, 2 ch, 192 Кбит/с | MVO (ТВ3)
Звук #4: AC3, 2 ch, 192 Кбит/с | MVO (ОРТ)
Звук #5: MP3, 2 ch, 96 Кбит/с | AVO (Л. Володарский)
Звук #6: EAC3, 6 ch, 640 Кбит/с | Eng
Субтитры: Английские
Семпл

Скриншоты

Инфо-файл

Формат : Matroska
Версия формата : Version 2
Размер файла : 8,97 Гбайт
Продолжительность : 1 ч. 25 м.
Режим общего битрейта : Переменный
Общий поток : 15,0 Мбит/сек
Название фильма : High.School.High.1996.1080p.AMZN.WEB-DL.by.zzZGVvv
Дата кодирования : UTC 2018-07-08 05:56:29
Программа кодирования : mkvmerge v5.8.0 ('No Sleep / Pillow') built on Sep 2 2012 15:37:04
Библиотека кодирования : libebml v1.2.3 + libmatroska v1.3.0
Attachements : cover.jpg
Видео
Идентификатор : 1
Формат : AVC
Формат/Информация : Advanced Video Codec
Профиль формата : High@L4
Параметр CABAC формата : Да
Параметр ReFrames формата : 4 кадра
Идентификатор кодека : V_MPEG4/ISO/AVC
Продолжительность : 1 ч. 25 м.
Вид битрейта : Переменный
Битрейт : 13,0 Мбит/сек
Максимальный битрейт : 15,0 Мбит/сек
Ширина : 1920 пикселей
Высота : 1080 пикселей
Соотношение сторон : 16:9
Режим частоты кадров : Постоянный
Частота кадров : 23,976 кадра/сек
Цветовое пространство : YUV
Субдискретизация насыщенности : 4:2:0
Битовая глубина : 8 бит
Тип развёртки : Прогрессивная
Бит/(Пиксели*Кадры) : 0.262
Размер потока : 7,76 Гбайт (87%)
Заголовок : High.School.High.1996.1080p.AMZN.WEB-DL
Библиотека кодирования : x264 core 148 r2623 d5b2374
Настройки программы : cabac=1 / ref=4 / deblock=1:-1:-1 / analyse=0x3:0x133 / me=umh / subme=9 / psy=1 / psy_rd=1.00:0.15 / mixed_ref=1 / me_range=24 / chroma_me=1 / trellis=2 / 8x8dct=1 / cqm=0 / deadzone=21,11 / fast_pskip=1 / chroma_qp_offset=-3 / threads=34 / lookahead_threads=5 / sliced_threads=0 / nr=150 / decimate=1 / interlaced=0 / bluray_compat=0 / constrained_intra=0 / bframes=8 / b_pyramid=2 / b_adapt=2 / b_bias=0 / direct=3 / weightb=1 / open_gop=0 / weightp=2 / keyint=120 / keyint_min=61 / scenecut=0 / intra_refresh=0 / rc_lookahead=120 / rc=crf / mbtree=1 / crf=18.0 / qcomp=0.60 / qpmin=0 / qpmax=69 / qpstep=4 / vbv_maxrate=15000 / vbv_bufsize=31250 / crf_max=0.0 / nal_hrd=vbr / filler=0 / ip_ratio=1.40 / aq=3:1.00
Язык : English
Default : Да
Forced : Нет
Цветовой диапазон : Limited
Основные цвета : BT.709
Характеристики трансфера : BT.709
Коэффициенты матрицы : BT.709
Аудио #1
Идентификатор : 2
Формат : AC-3
Формат/Информация : Audio Coding 3
Расширение режима : CM (complete main)
Параметр Endianness формата : Big
Идентификатор кодека : A_AC3
Продолжительность : 1 ч. 25 м.
Вид битрейта : Постоянный
Битрейт : 448 Кбит/сек
Каналы : 6 каналов
Расположение каналов : Front: L C R, Side: L R, LFE
Частота : 48,0 КГц
Метод сжатия : С потерями
Размер потока : 274 Мбайт (3%)
Заголовок : MVO
Язык : Russian
Default : Да
Forced : Нет
Аудио #2
Идентификатор : 3
Формат : AC-3
Формат/Информация : Audio Coding 3
Расширение режима : CM (complete main)
Параметр Endianness формата : Big
Идентификатор кодека : A_AC3
Продолжительность : 1 ч. 25 м.
Вид битрейта : Постоянный
Битрейт : 160 Кбит/сек
Каналы : 2 канала
Расположение каналов : Front: L R
Частота : 48,0 КГц
Метод сжатия : С потерями
Размер потока : 97,7 Мбайт (1%)
Заголовок : MVO (Видеосервис)
Язык : Russian
Default : Нет
Forced : Нет
Аудио #3
Идентификатор : 4
Формат : AC-3
Формат/Информация : Audio Coding 3
Расширение режима : CM (complete main)
Параметр Endianness формата : Big
Идентификатор кодека : A_AC3
Продолжительность : 1 ч. 25 м.
Вид битрейта : Постоянный
Битрейт : 192 Кбит/сек
Каналы : 2 канала
Расположение каналов : Front: L R
Частота : 48,0 КГц
Метод сжатия : С потерями
Размер потока : 117 Мбайт (1%)
Заголовок : MVO (ТВ3)
Язык : Russian
Default : Нет
Forced : Нет
Аудио #4
Идентификатор : 5
Формат : AC-3
Формат/Информация : Audio Coding 3
Расширение режима : CM (complete main)
Параметр Endianness формата : Big
Идентификатор кодека : A_AC3
Продолжительность : 1 ч. 25 м.
Вид битрейта : Постоянный
Битрейт : 192 Кбит/сек
Каналы : 2 канала
Расположение каналов : Front: L R
Частота : 48,0 КГц
Метод сжатия : С потерями
Размер потока : 117 Мбайт (1%)
Заголовок : MVO (ОРТ)
Язык : Russian
Default : Нет
Forced : Нет
Аудио #5
Идентификатор : 6
Формат : MPEG Audio
Версия формата : Version 1
Профиль формата : Layer 3
Идентификатор кодека : A_MPEG/L3
Идентификатор кодека/Подсказка : MP3
Продолжительность : 1 ч. 25 м.
Вид битрейта : Постоянный
Битрейт : 96,0 Кбит/сек
Каналы : 2 канала
Частота : 44,1 КГц
Метод сжатия : С потерями
Размер потока : 58,6 Мбайт (1%)
Заголовок : Л. Володарский
Язык : Russian
Default : Нет
Forced : Нет
Аудио #6
Идентификатор : 7
Формат : E-AC-3
Формат/Информация : Audio Coding 3
Параметр Endianness формата : Big
Идентификатор кодека : A_EAC3
Продолжительность : 1 ч. 25 м.
Вид битрейта : Постоянный
Битрейт : 640 Кбит/сек
Каналы : 6 каналов
Расположение каналов : Front: L C R, Side: L R, LFE
Частота : 48,0 КГц
Метод сжатия : С потерями
Размер потока : 391 Мбайт (4%)
Язык : English
Default : Нет
Forced : Нет
Текст #1
Идентификатор : 8
Формат : UTF-8
Идентификатор кодека : S_TEXT/UTF8
Идентификатор кодека/Информация : UTF-8 Plain Text
Язык : English
Default : Нет
Forced : Нет
Текст #2
Идентификатор : 9
Формат : UTF-8
Идентификатор кодека : S_TEXT/UTF8
Идентификатор кодека/Информация : UTF-8 Plain Text
Заголовок : SDH
Язык : English
Default : Нет
Forced : Нет
[Профиль] [ЛС]
Кто просматривает тему:

Форум Тема Автор Размер
Программы [Разное] Учитель-психопат v1.0 [Android 1.6+, RUS] TorrentFilm 4 MB
Научная и техническая литература Анна Зайцева | Вышивка лентами. Самый полный и понятный самоучитель (2015) [PDF] достали все 19 MB
Разная литература Аркадий Цавкелов - Китайский язык для начинающих. Самоучитель. Разговорник (+ MP3-CD) (2015) PDF, MP3 Монах 103 MB
Путешествия и приключения Артуро Перес-Реверте - Учитель фехтования (2016) MP3 Swager 509 MB
Научная и техническая литература Виталий Леонтьев - Новейший самоучитель. Android для планшетов и смартфонов (2015) PDF достали все 10 MB
Компьютерная литература (Программирование) Волков В.Б. - Понятный самоучитель Excel [2010, PDF, RUS] TorrentFilm 8 MB
Фильмы (HD Rips | 720p, 1080p) Восьмерка (Алексей Учитель) [2013, Россия, драма, WEB-DL 1080p] TorrentFilm 3.2 GB
Фильмы (HD Rips | 720p, 1080p) Восьмерка (Алексей Учитель) [2013, Россия, драма, WEB-DL 1080p] Original Rus reversefile 3.2 GB
Показать сообщения:    

Текущее время: Сегодня 23:09

Часовой пояс: GMT



Вы не можете начинать темы
Вы не можете отвечать на сообщения
Вы не можете редактировать свои сообщения
Вы не можете удалять свои сообщения
Вы не можете голосовать в опросах
Вы не можете прикреплять файлы к сообщениям
Вы не можете скачивать файлы