Училка (2015) WEB-DL 720p | iTunes

 
Автор Сообщение

Russian Mafia ®

Пол:

Стаж: 1 год 8 месяцев

Сообщений: 4257



Награды: 10 (Подробнее)

Mega Seeder 2 (Количество: 1) За внесенный вклад в развитие сайта (Количество: 1) Mega Seeder 1 (Количество: 1)
Торрент-статистика

Создавать темы 16-Окт-2016 12:59

[Цитировать]

Производство: Россия, Russian Film Group, Startfilm Group
Жанр: Драма, Боевик, Криминал
Режиссер: Алексей Петрухин
Продюсер: Петр Черенков, Олег Степченко, Алексей Петрухин
Актеры: Ирина Купченко, Анна Чурина, Роза Хайруллина, Андрей Мерзликин, Алиса Гребенщикова, Ольга Егорова, Анастасия Пономарева, Дарья Дубникова, Акмал Аблаев, Алексей Лукин
Описание:
Внезапную тишину школьных коридоров оглашает выстрел. Доведенная до крайности учительница истории берет в заложники целый класс. Но вскоре ситуация в корне меняется и заложницей становится она сама…

Возраст: 12+ (зрителям, достигшим 12 лет)
Дата мировой премьеры: 13 ноября 2015
Дата российской премьеры: 26 ноября 2015, «Каропрокат»
Продолжительность: 02:06:55
Качество видео: WEB-DL
Перевод: Не требуется (русский) iTunes
Вид субтитров: Отсутствуют
Видео: AVC/H.264, 1280x720, 4 098 Кбит/с
Аудио: AC3, 6 ch, 384 Кбит/с

M/I

General
Complete name : E:UCHiLLkO.2O16.O.WEB-DL.72Op.mkv
Format : Matroska
File size : 4.05 GiB
Duration : 2h 6mn
Overall bit rate : 4 573 Kbps
Encoded date : UTC 2016-10-15 18:45:08
Writing application : mkvmerge v8.3.0 ('Over the Horizon') 64bit
Writing library : libebml v1.3.1 + libmatroska v1.4.2
Video
ID : 1
Format : AVC
Format/Info : Advanced Video Codec
Format profile : High@L4.1
Format settings, CABAC : Yes
Format settings, ReFrames : 4 frames
Muxing mode : Container profile=Unknown@4.1
Codec ID : V_MPEG4/ISO/AVC
Duration : 2h 6mn
Bit rate : 4 098 Kbps
Width : 1 280 pixels
Height : 720 pixels
Display aspect ratio : 16:9
Frame rate : 25.000 fps
Resolution : 8 bits
Colorimetry : 4:2:0
Scan type : Progressive
Bits/(Pixel*Frame) : 0.178
Stream size : 3.63 GiB (90%)
Audio
ID : 2
Format : AC-3
Format/Info : Audio Coding 3
Codec ID : A_AC3
Duration : 2h 6mn
Bit rate mode : Constant
Bit rate : 384 Kbps
Channel(s) : 6 channels
Channel positions : Front: L C R, Surround: L R, LFE
Sampling rate : 48.0 KHz
Stream size : 349 MiB (8%)
Language : Russian
Menu
00:00:00.000 : en:Глава 1
00:07:15.680 : en:Глава 2
00:13:00.640 : en:Глава 3
00:19:46.320 : en:Глава 4
00:24:54.640 : en:Глава 5
00:30:48.280 : en:Глава 6
00:36:34.520 : en:Глава 7
00:42:33.600 : en:Глава 8
00:48:05.040 : en:Глава 9
00:55:19.480 : en:Глава 10
01:01:14.640 : en:Глава 11
01:06:20.600 : en:Глава 12
01:12:58.000 : en:Глава 13
01:18:39.480 : en:Глава 14
01:24:39.720 : en:Глава 15
01:32:15.640 : en:Глава 16
01:38:31.800 : en:Глава 17
01:44:38.640 : en:Глава 18
01:49:54.080 : en:Глава 19
01:55:23.600 : en:Глава 20

Скриншоты

[Профиль] [ЛС]
Показать сообщения:    

Текущее время: Сегодня 20:24

Часовой пояс: GMT



Вы не можете начинать темы
Вы не можете отвечать на сообщения
Вы не можете редактировать свои сообщения
Вы не можете удалять свои сообщения
Вы не можете голосовать в опросах
Вы не можете прикреплять файлы к сообщениям
Вы не можете скачивать файлы