Училка (2015) WEB-DL 1080p | iTunes

 
Автор Сообщение

Russian Mafia ®

Пол:

Стаж: 1 год 8 месяцев

Сообщений: 4252



Награды: 10 (Подробнее)

Top Releaser 4 (Количество: 1) Top Releaser 3 (Количество: 1) Top Releaser 5 (Количество: 1)
Торрент-статистика

Создавать темы 16-Окт-2016 12:59

[Цитировать]

Производство: Россия, Russian Film Group, Startfilm Group
Жанр: Драма, Боевик, Криминал
Режиссер: Алексей Петрухин
Продюсер: Петр Черенков, Олег Степченко, Алексей Петрухин
Актеры: Ирина Купченко, Анна Чурина, Роза Хайруллина, Андрей Мерзликин, Алиса Гребенщикова, Ольга Егорова, Анастасия Пономарева, Дарья Дубникова, Акмал Аблаев, Алексей Лукин
Описание:
Внезапную тишину школьных коридоров оглашает выстрел. Доведенная до крайности учительница истории берет в заложники целый класс. Но вскоре ситуация в корне меняется и заложницей становится она сама…

Возраст: 12+ (зрителям, достигшим 12 лет)
Дата мировой премьеры: 13 ноября 2015
Дата российской премьеры: 26 ноября 2015, «Каропрокат»
Продолжительность: 02:06:55
Качество видео: WEB-DL
Перевод: Не требуется (русский) iTunes
Вид субтитров: Отсутствуют
Видео: AVC/H.264, 1920x1080, 5082 Kbps
Аудио: 48 kHz, AC3 Dolby Digital, 3/2 (L,C,R,l,r) + LFE ch, ~384 kbps

M/I

Общее
Уникальный идентификатор : 207035369356752894285920657193874791883 (0x9BC18FCE22F531C18ECB6187A5E49DCB)
Полное имя : D:Училка.2016.WEB-DL.[1080p].NNMClub.to.mkv
Формат : Matroska
Версия формата : Version 2
Размер файла : 4,94 Гбайт
Продолжительность : 2 ч. 6 м.
Общий поток : 5577 Кбит/сек
Дата кодирования : UTC 2016-10-15 18:44:49
Программа кодирования : mkvmerge v3.4.0 ('Rapunzel') built on May 15 2010 09:38:20
Библиотека кодирования : libebml v0.8.0 + libmatroska v0.9.0
Видео
Идентификатор : 1
Формат : AVC
Формат/Информация : Advanced Video Codec
Профиль формата : High@L4
Параметр CABAC формата : Да
Параметр ReFrames формата : 4 кадра
Идентификатор кодека : V_MPEG4/ISO/AVC
Продолжительность : 2 ч. 6 м.
Битрейт : 5082 Кбит/сек
Ширина : 1920 пикселей
Высота : 1080 пикселей
Соотношение сторон : 16:9
Режим частоты кадров : Постоянный
Частота кадров : 25,000 кадров/сек
Цветовое пространство : YUV
Субдискретизация насыщенности : 4:2:0
Битовая глубина : 8 бит
Тип развёртки : Прогрессивная
Бит/(Пиксели*Кадры) : 0.098
Размер потока : 4,51 Гбайт (91%)
Язык : Russian
Default : Да
Forced : Нет
Цветовой диапазон : Limited
Основные цвета : BT.709
Характеристики трансфера : BT.709
Коэффициенты матрицы : BT.709
Аудио
Идентификатор : 2
Формат : AC-3
Формат/Информация : Audio Coding 3
Расширение режима : CM (complete main)
Параметр Endianness формата : Big
Идентификатор кодека : A_AC3
Продолжительность : 2 ч. 6 м.
Вид битрейта : Постоянный
Битрейт : 384 Кбит/сек
Каналы : 6 каналов
Расположение каналов : Front: L C R, Side: L R, LFE
Частота : 48,0 КГц
Метод сжатия : С потерями
Размер потока : 349 Мбайт (7%)
Заголовок : AC3 5.1 @ 384 kbps
Язык : Russian
Default : Да
Forced : Нет
Меню
00:00:00.000 : en:1
00:07:15.680 : en:2
00:13:00.640 : en:3
00:19:46.320 : en:4
00:24:54.640 : en:5
00:30:48.280 : en:6
00:36:34.520 : en:7
00:42:33.600 : en:8
00:48:05.040 : en:9
00:55:19.480 : en:10
01:01:14.640 : en:11
01:06:20.600 : en:12
01:12:58.000 : en:13
01:18:39.480 : en:14
01:24:39.720 : en:15
01:32:15.640 : en:16
01:38:31.800 : en:17
01:44:38.640 : en:18
01:49:54.080 : en:19
01:55:23.600 : en:20

Скриншоты

[Профиль] [ЛС]
Показать сообщения:    

Текущее время: Сегодня 22:43

Часовой пояс: GMT



Вы не можете начинать темы
Вы не можете отвечать на сообщения
Вы не можете редактировать свои сообщения
Вы не можете удалять свои сообщения
Вы не можете голосовать в опросах
Вы не можете прикреплять файлы к сообщениям
Вы не можете скачивать файлы