Ученик чародея / The Sorcerer\'s Apprentice (Джон Тёртелтауб / Jon Turteltaub) [2010, США, Фэнтези, Боевик, Драма, Комедия, Приключения, DVB] [Fullscreen] Dub + Sub Rus

 
Автор Сообщение

TorrentFilm ®

Пол:

Стаж: 2 года

Сообщений: 7741



Награды: Нет

Торрент-статистика

Создавать темы 18-Ноя-2015 00:11

[Цитировать]

Ученик чародея / The Sorcerer's Apprentice
«Это работа мечты»
Страна: США
Жанр: Фэнтези, Боевик, Драма, Комедия, Приключения
Год выпуска: 2010
Продолжительность: 01:38:46
Перевод: Профессиональный (дублированный)
Cубтитры: русские
Оригинальная аудиодорожка: нет
Режиссер: Джон Тёртелтауб / Jon Turteltaub
В ролях: Николас Кейдж, Джей Барушель, Альфред Молина, Тереза Палмер, Тоби Кеббелл, Омар Бенсон Миллер, Моника Беллуччи, Элис Крайдж, Джэйк Черри, Джеймс А. СтефенсОписание: Манхэттен, наши дни. Мастер магии Бальтазар Блэйк пытается защитить Нью-Йорк от своего старого врага Максима Хорвата — злобного колдуна с самыми черными планами. Однако Бальтазар чувствует, что не справится один и ему нужен помощник…-Доп. информация: Fullscreen (4:3), в отличии от Widescreen (16:9), имеет большее наполнение кадра по высоте, но меньшее по ширине.-
MPAA: PG - Рекомендуется присутствие родителей-Релиз подготовил Parabellumm, специально для -Качество видео: DVB - Sample
Формат видео: TS
Видео: MPEG-4 AVC, 720x576 (4:3), 3410 Кбит/с, 25 кадров/сек, 0.329 бит/пиксель
Аудио: MPEG Layer 2, 48 КГц, 2 канал, 256 Кбит/с
Формат субтитров: hardsub (неотключаемые, на китайскую речь)

MediaInfo

Общее
Идентификатор : 1 (0x1)
Полное имя : C:\...\The.Sorcerer's.Apprentice.2010.DVB.Fullscreen.DUB.Rutracker-PB.ts
Формат : MPEG-TS
Размер файла : 2,66 Гбайт
Продолжительность : 1 ч. 38 м.
Режим общего битрейта : Переменный
Общий поток : 3860 Кбит/сек
Видео
Идентификатор : 67 (0x43)
Идентификатор меню : 1 (0x1)
Формат : AVC
Формат/Информация : Advanced Video Codec
Профиль формата : High@L3.0
Параметр CABAC формата : Да
Параметр ReFrames формата : 3 кадра
Параметр GOP формата : M=4, N=28
Идентификатор кодека : 27
Продолжительность : 1 ч. 38 м.
Битрейт : 3410 Кбит/сек
Ширина : 720 пикселей
Высота : 576 пикселей
Соотношение сторон : 4:3
Частота кадров : 25,000 кадров/сек
Стандарт вещания : Component
Цветовое пространство : YUV
Субдискретизация насыщенности : 4:2:0
Битовая глубина : 8 бит
Тип развёртки : Чересстрочная
Порядок развёртки : Верхнее поле первое
Бит/(Пиксели*Кадры) : 0.329
Размер потока : 2,35 Гбайт (88%)
Основные цвета : BT.601 PAL
Характеристики трансфера : BT.470 System B, BT.470 System G
Коэффициенты матрицы : BT.601
Аудио
Идентификатор : 68 (0x44)
Идентификатор меню : 1 (0x1)
Формат : MPEG Audio
Версия формата : Version 1
Профиль формата : Layer 2
Идентификатор кодека : 3
Продолжительность : 1 ч. 38 м.
Вид битрейта : Постоянный
Битрейт : 256 Кбит/сек
Каналы : 2 канала
Частота : 48,0 КГц
Метод сжатия : С потерями
Задержка видео : -80 мс.
Размер потока : 181 Мбайт (7%)
Язык : English

Скриншот c названием фильма

Скриншоты


[Профиль] [ЛС]

Создавать темы 12-Июн-2016 07:53 (спустя 6 месяцев 24 дня)

Топик был перенесен из форума Фильмы 2011 года в форум Фильмы 2010 года
Russian Mafia
 
Кто просматривает тему:

Форум Тема Автор Размер
ТВ - Шоу 73-я Церемония вручения премии Золотой глобус 2016 / The 73rd Golden Globe Awards 2016 (2016) HDTVRip 720p BOSS 2.39 GB
Фантастика и фэнтези Алексей Гравицкий, Михаил Костин – Живое и мертвое 02. Ученик мага (2015) MP3 Swager 700 MB
Фильмы 2011 года Бесстрашные ученики / The Disciples (2000) VHSRip от bittracker Белочка 731 MB
R.G.TorrentFilm Video Дарт Мол: Ученик / Darth Maul: Apprentice (Шоун Бу / Shawn Bu) [2016, Германия, Короткометражка, фантастика, боевик, WEB-DLRip] MVO (AniLibria) Один 777 284 MB
Иностранные языки Денис Шевчук | Английский словарь газетный для ускоренного изучения английского языка. Часть 1,2,3 (2009) [FB2] sergej644 2 MB
Фантастика и фэнтези Джозеф Дилейни - Ученик ведьмака (2015) MP3 Swager 229 MB
ТВ - Шоу Золотой Граммофон 2016. XXI Церемония вручения Премии (полная версия 19.11) (2016) WEB-DL 720p достали все 4.67 GB
Фильмы (HD DVD, Blu-ray и BDRemux) Лекарь: Ученик Авиценны / The Physician (2013) BDRemux 1080р | ESP Transfer | D | Лицензия Russian Mafia 33.01 GB
Показать сообщения:    

Текущее время: Сегодня 16:22

Часовой пояс: GMT



Вы не можете начинать темы
Вы не можете отвечать на сообщения
Вы не можете редактировать свои сообщения
Вы не можете удалять свои сообщения
Вы не можете голосовать в опросах
Вы не можете прикреплять файлы к сообщениям
Вы не можете скачивать файлы