Ученик чародея / The Sorcerer\'s Apprentice (Джон Тертелтауб / Jon Turteltaub) [2010, США, Боевик, фэнтези, комедия, драма, приключения, BDRip-AVC] Dub + Sub Rus

 
Автор Сообщение

TorrentFilm ®

Пол:

Стаж: 1 год 11 месяцев

Сообщений: 7741



Награды: Нет

Торрент-статистика

Создавать темы 08-Янв-2015 00:15

[Цитировать]

Ученик чародея / The Sorcerer's Apprentice
«Это работа мечты»
- - Страна: США / Walt Disney Pictures, Jerry Bruckheimer Films, Saturn Films, Broken Road Productions, Junction Entertainment
Жанр: Боевик, фэнтези, комедия, драма, приключения
Год выпуска: 2010
Продолжительность: 01:49:02
Перевод: Профессиональный (Полное дублирование) [лицензия BD EUR]
Cубтитры: Русские (полные + форс.), украинские (полные + форс.), английские (Full + SDH)
Оригинальная аудиодорожка: Нет
Навигация по главам: Есть-Режиссер: Джон Тертелтауб / Jon Turteltaub-В ролях: Николас Кейдж, Джей Барушель, Альфред Молина, Тереза Палмер, Тоби Кеббелл, Омар Бенсон Миллер, Моника Беллуччи, Элис Крайдж, Джейк Черри, Джеймс А. Стефенс, Грегори Ву, Вэй Чинг Хо, Джейсон Р. Мур, Роберт Капрон, Пейтон Лист, Сандор Текси, Марика Дацюк, Николь Эхингер, Адриан Ленокс, Этан Пек, Мэниш Патель, Оскар А. Колон, Джо Лиси, Уильям Дэвлин, Виктор Круз, Мелисса Галлахер, Фитц Хенли-Описание: Манхэттен, наши дни. Мастер магии Бальтазар Блэйк пытается защитить Нью-Йорк от своего старого врага Максима Хорвата — злобного колдуна с самыми черными планами. Однако, Бальтазар чувствует, что не справится один и ему нужен помощник. На эту роль он выбирает самого обычного парня Дэйва, который вовсе не хочет спасать мир. Однако ему придется пройти ускоренный курс магии и вступить в битву.-| IMDB | КиноПоиск | Сэмпл |-Премьера (мир) 8 июля 2010,
Премьера (РФ) 15 июля 2010, «WDSSPR»
Релиз на DVD 23 ноября 2010, «Уолт Дисней Компани СНГ»
Релиз на Blu-Ray 7 декабря 2010, «Уолт Дисней Компани СНГ»
Бюджет $150 000 000-Качество видео: BDRip (источник: Blu-Ray )
Формат видео: MKV
Видео: MPEG4 Video (H264), 936x390 (2,40:1), 23,976 fps, 1533 Кbps, 0.175 bit/pixel
Аудио: 48 kHz, AC3 Dolby Digital, 3/2 (L,C,R,l,r) + LFE ch, 384.00 kbps | RUS |-Релиз группы: HELLYWOOD
Автор рипа: potroks-

MediaInfo

General
Unique ID : 231054392252842320387558190739719153809 (0xADD375107225A483AB0ACC37740B6891)
Complete name : D:\FILMS\Uchenik.Charodeia.2010.RUS.BDRip.x264.-HELLYWOOD.mkv
Format : Matroska
Format version : Version 4 / Version 2
File size : 1.46 GiB
Duration : 1h 49mn
Overall bit rate : 1 919 Kbps
Movie name : The Sorcerer's Apprentice (2010) - HELLYWOOD
Encoded date : UTC 2015-01-05 17:18:27
Writing application : mkvmerge v5.9.0 ('On The Loose') built on Dec 15 2012 16:39:58
Writing library : libebml v1.3.0 + libmatroska v1.4.0
Video
ID : 1
Format : AVC
Format/Info : Advanced Video Codec
Format profile : High@L4.1
Format settings, CABAC : Yes
Format settings, ReFrames : 12 frames
Codec ID : V_MPEG4/ISO/AVC
Duration : 1h 49mn
Bit rate : 1 533 Kbps
Width : 936 pixels
Height : 390 pixels
Display aspect ratio : 2.40:1
Frame rate mode : Constant
Frame rate : 23.976 fps
Color space : YUV
Chroma subsampling : 4:2:0
Bit depth : 8 bits
Scan type : Progressive
Bits/(Pixel*Frame) : 0.175
Stream size : 1.14 GiB (78%)
Writing library : x264 core 130 r2273 b3065e6
Encoding settings : cabac=1 / ref=12 / deblock=1:-2:-2 / analyse=0x3:0x133 / me=umh / subme=11 / psy=1 / psy_rd=1.01:0.05 / mixed_ref=1 / me_range=48 / chroma_me=1 / trellis=2 / 8x8dct=1 / cqm=0 / deadzone=21,11 / fast_pskip=0 / chroma_qp_offset=-3 / threads=9 / lookahead_threads=6 / sliced_threads=0 / nr=0 / decimate=0 / interlaced=0 / bluray_compat=0 / constrained_intra=0 / bframes=13 / b_pyramid=2 / b_adapt=2 / b_bias=0 / direct=3 / weightb=1 / open_gop=0 / weightp=2 / keyint=250 / keyint_min=23 / scenecut=40 / intra_refresh=0 / rc_lookahead=60 / rc=2pass / mbtree=0 / bitrate=1533 / ratetol=1.0 / qcomp=0.70 / qpmin=0 / qpmax=69 / qpstep=4 / cplxblur=20.0 / qblur=0.5 / vbv_maxrate=50000 / vbv_bufsize=62500 / nal_hrd=none / ip_ratio=1.35 / pb_ratio=1.25 / aq=1:0.80
Language : English
Default : Yes
Forced : No
Audio
ID : 2
Format : AC-3
Format/Info : Audio Coding 3
Mode extension : CM (complete main)
Format settings, Endianness : Big
Codec ID : A_AC3
Duration : 1h 49mn
Bit rate mode : Constant
Bit rate : 384 Kbps
Channel(s) : 6 channels
Channel positions : Front: L C R, Side: L R, LFE
Sampling rate : 48.0 KHz
Bit depth : 16 bits
Compression mode : Lossy
Stream size : 299 MiB (20%)
Default : Yes
Forced : No
Text #1
ID : 3
Format : UTF-8
Codec ID : S_TEXT/UTF8
Codec ID/Info : UTF-8 Plain Text
Title : форс.
Language : Russian
Default : Yes
Forced : Yes
Text #2
ID : 4
Format : UTF-8
Codec ID : S_TEXT/UTF8
Codec ID/Info : UTF-8 Plain Text
Title : полные
Language : Russian
Default : No
Forced : No
Text #3
ID : 5
Format : UTF-8
Codec ID : S_TEXT/UTF8
Codec ID/Info : UTF-8 Plain Text
Title : форс.
Language : Ukrainian
Default : No
Forced : No
Text #4
ID : 6
Format : UTF-8
Codec ID : S_TEXT/UTF8
Codec ID/Info : UTF-8 Plain Text
Title : полные
Language : Ukrainian
Default : No
Forced : No
Text #5
ID : 7
Format : UTF-8
Codec ID : S_TEXT/UTF8
Codec ID/Info : UTF-8 Plain Text
Title : Full
Language : English
Default : No
Forced : No
Text #6
ID : 8
Format : UTF-8
Codec ID : S_TEXT/UTF8
Codec ID/Info : UTF-8 Plain Text
Title : SDH
Language : English
Default : No
Forced : No
Menu
00:00:00.000 : en:The War Of The Sorcerers
00:04:11.168 : en:Field Trip To Areana Cabana
00:14:54.519 : en:Becky And Dave Reunite
00:20:58.716 : en:Horvath And Balthazar Return
00:25:27.985 : en:Balthazar Recruits Dave
00:31:09.326 : en:Chinatown
00:37:08.893 : en:"I'd Like To Learn More"
00:42:25.793 : en:Horvath Finds Drake
00:49:11.240 : en:Becky Stops By
00:53:41.301 : en:Bathroom Fight
00:57:56.139 : en:The Prime Merlinean
01:01:53.168 : en:A Mess In The Lab
01:07:04.270 : en:Dave Finds Becky Again
01:12:41.315 : en:Car Chase
01:17:24.849 : en:Veronica's Story
01:21:33.972 : en:Going After The Grimhold
01:25:44.806 : en:Dave Comes Clean With Becky
01:28:31.264 : en:The Rising
01:34:04.722 : en:Dave Joins The Fight
01:39:01.686 : en:Balthazar is Dead
01:42:38.819 : en:End Credits

Скриншот c названием фильма

[Профиль] [ЛС]

Создавать темы 06-Авг-2015 22:50 (спустя 6 месяцев 29 дней)

Топик был перенесен из форума Фильмы до 2014 года в форум Фильмы до 2012 года
sergej644
 

Создавать темы 12-Июн-2016 07:54 (спустя 1 год 5 месяцев)

Топик был перенесен из форума Фильмы 2011 года в форум Фильмы 2010 года
Russian Mafia
 
Кто просматривает тему:

Форум Тема Автор Размер
ТВ - Шоу 73-я Церемония вручения премии Золотой глобус 2016 / The 73rd Golden Globe Awards 2016 (2016) HDTVRip 720p BOSS 2.39 GB
Фантастика и фэнтези Алексей Гравицкий, Михаил Костин – Живое и мертвое 02. Ученик мага (2015) MP3 Swager 700 MB
Фильмы 2011 года Бесстрашные ученики / The Disciples (2000) VHSRip от bittracker Белочка 731 MB
R.G.TorrentFilm Video Дарт Мол: Ученик / Darth Maul: Apprentice (Шоун Бу / Shawn Bu) [2016, Германия, Короткометражка, фантастика, боевик, WEB-DLRip] MVO (AniLibria) Один 777 284 MB
Иностранные языки Денис Шевчук | Английский словарь газетный для ускоренного изучения английского языка. Часть 1,2,3 (2009) [FB2] sergej644 2 MB
Фантастика и фэнтези Джозеф Дилейни - Ученик ведьмака (2015) MP3 Swager 229 MB
ТВ - Шоу Золотой Граммофон 2016. XXI Церемония вручения Премии (полная версия 19.11) (2016) WEB-DL 720p достали все 4.67 GB
Фильмы (HD DVD, Blu-ray и BDRemux) Лекарь: Ученик Авиценны / The Physician (2013) BDRemux 1080р | ESP Transfer | D | Лицензия Russian Mafia 33.01 GB
Показать сообщения:    

Текущее время: Сегодня 18:01

Часовой пояс: GMT



Вы не можете начинать темы
Вы не можете отвечать на сообщения
Вы не можете редактировать свои сообщения
Вы не можете удалять свои сообщения
Вы не можете голосовать в опросах
Вы не можете прикреплять файлы к сообщениям
Вы не можете скачивать файлы