Ученик чародея / The Sorcerer\'s Apprentice (Джон Тёртелтауб / Jon Turteltaub) [2010, США, фэнтези, боевик, драма, комедия, приключения, BDRip-AVC] Dub (Blu-ray) + Original Eng

 
Автор Сообщение

painkiller ®

Стаж: 2 года 3 месяца

Сообщений: 582



Награды: Нет

Торрент-статистика

Создавать темы 14-Авг-2014 09:12

[Цитировать]

Ученик чародея
The Sorcerer's Apprentice

Страна: США
Жанр: фэнтези, боевик, драма, комедия, приключения
Год выпуска: 2010
Продолжительность: 01:49:02
Перевод: Профессиональный (дублированный) Blu-ray
Cубтитры: нет
Оригинальная аудиодорожка: английский
Режиссер: Джон Тёртелтауб / Jon Turteltaub
В ролях: Николас Кейдж, Джей Барушель, Альфред Молина, Тереза Палмер, Тоби Кеббелл, Омар Бенсон Миллер, Моника Беллуччи, Элис Крайдж, Джэйк Черри, Джеймс А. Стефенс
Описание: Манхэттен, наши дни. Мастер магии Бальтазар Блэйк пытается защитить Нью-Йорк от своего старого врага Максима Хорвата — злобного колдуна с самыми черными планами. Однако Бальтазар чувствует, что не справится один и ему нужен помощник…
Доп. информация:
Сэмпл: http://sendfile.su/987416
Качество видео: BDRip-AVC [1080p BD-Remux.hdclub]
Формат видео: MKV
Видео: AVC, 1024 x 432 (2,40:1), 2096 kbps, 23,976 fps, 0.198 bpp
Аудио: AC3, 6ch, 48 kHz, 384 kbps, 16 bit
Аудио 2: AC3, 6ch, 48 kHz, 384 kbps, 16 bit

MediaInfo

Уникальный идентификатор : 246182046776732224448515485151533168032 (0xB934F0044FAF7944A15A2936771F75A0)
Полное имя : F:\Films\Rip 9\The Sorcerer's Apprentice.mkv
Формат : Matroska
Версия формата : Version 2
Размер файла : 2,18 Гбайт
Продолжительность : 1 ч. 49 м.
Общий поток : 2865 Кбит/сек
Дата кодирования : UTC 2014-06-05 10:36:47
Программа кодирования : mkvmerge v6.9.1 ('Blue Panther') 32bit built on Apr 18 2014 18:15:44
Библиотека кодирования : libebml v1.3.0 + libmatroska v1.4.1
Видео
Идентификатор : 1
Формат : AVC
Формат/Информация : Advanced Video Codec
Профиль формата : High@L4.1
Параметр CABAC формата : Да
Параметр ReFrames формата : 8 кадров
Идентификатор кодека : V_MPEG4/ISO/AVC
Продолжительность : 1 ч. 49 м.
Битрейт : 2096 Кбит/сек
Ширина : 1024 пикселя
Высота : 432 пикселя
Соотношение сторон : 2,40:1
Соотношение сторон в оригинале : 2,40:1
Режим частоты кадров : Постоянный
Частота кадров : 23,976 кадра/сек
Цветовое пространство : YUV
Субдискретизация насыщенности : 4:2:0
Битовая глубина : 8 бит
Тип развёртки : Прогрессивная
Бит/(Пиксели*Кадры) : 0.198
Размер потока : 1,55 Гбайт (71%)
Библиотека кодирования : x264 core 138 r2358 9e941d1
Настройки программы : cabac=1 / ref=8 / deblock=1:-2:-1 / analyse=0x3:0x133 / me=umh / subme=9 / psy=1 / psy_rd=1.00:0.05 / mixed_ref=0 / me_range=36 / chroma_me=1 / trellis=2 / 8x8dct=1 / cqm=0 / deadzone=21,11 / fast_pskip=0 / chroma_qp_offset=-3 / threads=3 / lookahead_threads=1 / sliced_threads=0 / nr=0 / decimate=0 / interlaced=0 / bluray_compat=0 / constrained_intra=0 / bframes=12 / b_pyramid=2 / b_adapt=2 / b_bias=0 / direct=1 / weightb=1 / open_gop=0 / weightp=2 / keyint=240 / keyint_min=23 / scenecut=40 / intra_refresh=0 / rc=2pass / mbtree=0 / bitrate=2096 / ratetol=1.0 / qcomp=0.70 / qpmin=10 / qpmax=69 / qpstep=4 / cplxblur=20.0 / qblur=0.5 / ip_ratio=1.40 / pb_ratio=1.30 / aq=1:1.00
Язык : English
Default : Да
Forced : Нет
Аудио #1
Идентификатор : 2
Формат : AC-3
Формат/Информация : Audio Coding 3
Расширение режима : CM (complete main)
Параметр Endianness формата : Big
Идентификатор кодека : A_AC3
Продолжительность : 1 ч. 49 м.
Вид битрейта : Постоянный
Битрейт : 384 Кбит/сек
Каналы : 6 каналов
Расположение каналов : Front: L C R, Side: L R, LFE
Частота : 48,0 КГц
Битовая глубина : 16 бит
Метод сжатия : С потерями
Размер потока : 300 Мбайт (13%)
Заголовок : Профессиональный дублированный
Язык : Russian
Default : Да
Forced : Нет
Аудио #2
Идентификатор : 3
Формат : AC-3
Формат/Информация : Audio Coding 3
Расширение режима : CM (complete main)
Параметр Endianness формата : Big
Идентификатор кодека : A_AC3
Продолжительность : 1 ч. 49 м.
Вид битрейта : Постоянный
Битрейт : 384 Кбит/сек
Каналы : 6 каналов
Расположение каналов : Front: L C R, Side: L R, LFE
Частота : 48,0 КГц
Битовая глубина : 16 бит
Метод сжатия : С потерями
Размер потока : 300 Мбайт (13%)
Заголовок : английский
Язык : English
Default : Нет
Forced : Да
Меню
00:00:00.000 : :00:00:00.000
00:04:11.167 : :00:04:11.167
00:14:54.518 : :00:14:54.518
00:20:58.714 : :00:20:58.714
00:25:27.983 : :00:25:27.983
00:31:09.325 : :00:31:09.325
00:37:08.893 : :00:37:08.893
00:42:25.793 : :00:42:25.793
00:49:11.239 : :00:49:11.239
00:53:41.300 : :00:53:41.300
00:57:56.139 : :00:57:56.139
01:01:53.166 : :01:01:53.166
01:07:04.269 : :01:07:04.269
01:12:41.314 : :01:12:41.314
01:17:24.847 : :01:17:24.847
01:21:33.971 : :01:21:33.971
01:25:44.805 : :01:25:44.805
01:28:31.264 : :01:28:31.264
01:34:04.721 : :01:34:04.721
01:39:01.685 : :01:39:01.685
01:42:38.819 : :01:42:38.819

Скриншот c названием фильма

Скриншоты

[Профиль] [ЛС]

Создавать темы 06-Авг-2015 23:15 (спустя 11 месяцев 23 дня)

Топик был перенесен из форума Фильмы до 2014 года в форум Фильмы до 2012 года
sergej644
 

Создавать темы 12-Июн-2016 07:54 (спустя 1 год 9 месяцев)

Топик был перенесен из форума Фильмы 2011 года в форум Фильмы 2010 года
Russian Mafia
 
Кто просматривает тему:

Форум Тема Автор Размер
ТВ - Шоу 73-я Церемония вручения премии Золотой глобус 2016 / The 73rd Golden Globe Awards 2016 (2016) HDTVRip 720p BOSS 2.39 GB
Фантастика и фэнтези Алексей Гравицкий, Михаил Костин – Живое и мертвое 02. Ученик мага (2015) MP3 Swager 700 MB
Фильмы 2011 года Бесстрашные ученики / The Disciples (2000) VHSRip от bittracker Белочка 731 MB
R.G.TorrentFilm Video Дарт Мол: Ученик / Darth Maul: Apprentice (Шоун Бу / Shawn Bu) [2016, Германия, Короткометражка, фантастика, боевик, WEB-DLRip] MVO (AniLibria) Один 777 284 MB
Иностранные языки Денис Шевчук | Английский словарь газетный для ускоренного изучения английского языка. Часть 1,2,3 (2009) [FB2] sergej644 2 MB
Фантастика и фэнтези Джозеф Дилейни - Ученик ведьмака (2015) MP3 Swager 229 MB
ТВ - Шоу Золотой Граммофон 2016. XXI Церемония вручения Премии (полная версия 19.11) (2016) WEB-DL 720p достали все 4.67 GB
Фильмы (HD DVD, Blu-ray и BDRemux) Лекарь: Ученик Авиценны / The Physician (2013) BDRemux 1080р | ESP Transfer | D | Лицензия Russian Mafia 33.01 GB
Показать сообщения:    

Текущее время: Сегодня 22:37

Часовой пояс: GMT



Вы не можете начинать темы
Вы не можете отвечать на сообщения
Вы не можете редактировать свои сообщения
Вы не можете удалять свои сообщения
Вы не можете голосовать в опросах
Вы не можете прикреплять файлы к сообщениям
Вы не можете скачивать файлы