Ученик мастера / Нулевой Тай-цзи в 3Д / TaiChi Zero 3D (Стивен Фанг / Stephe Fung) [2012, боевик, приключения, BDrip-AVC] Half OverUnder / Вертикальная анаморфная стереопара

 
Автор Сообщение

TorrentFilm ®

Пол:

Стаж: 2 года

Сообщений: 7741



Награды: Нет

Торрент-статистика

Создавать темы 01-Янв-2016 00:17

[Цитировать]

Ученик мастера / Нулевой Тай-цзи / TaiChi Zero
Год выпуска: 2012
Страна: Гонконг
Студия: 01:38:07
Жанр: боевик, приключения
Продолжительность: 01:38:07
Перевод: Профессиональный (дублированный)
Русские субтитры: нет
Режиссер на русском: Стивен Фанг
Режиссер на английском: Stephe Fung
В ролях: Стивен Фанг, Юань Сяочао, Тони Люн Ка Фай, Эдди Пэн, Ки Шу, Дэниэл Ву, Стэнли Фунг, Пьер Бурдо, Пол Филип Кларк, Кеони Эверингтон, Анджела Бейби
Описание:
Необыкновенно одарённого ребёнка Яна Лучаня все считают местным дурачком, тем не менее, мать Яна предлагает ему изучить боевые искусства. Подчинившись её желанию, Ян отправляется в отдалённую деревню Чэнь обучаться тайцзы.
В этой легендарной деревне все практикуют тайцзы, и используют его в повседневной жизни. Однако жителям деревни запрещено раскрывать аспекты тайцзы чужакам, и Ян узнал об этом на собственном опыте.
Яну по прибытию в деревню всячески пытаются отбить охоту местные жители, вызывая его на поединки. Используя приёмы тайцзы, его побеждают все — мужчины, женщины и даже дети. Проведя серьёзный бой и потерпев поражение от Юньян, красивой дочери мастера Чэня, Ян решает изучить искусство тайцзы и найти мастера Чэня.
Но юный Ян и не догадывается, что странный бедняк, который спас его во время боя с Юньян, и с которым он подружился, и есть тот самый мастер Чэнь. Мастер понимает, насколько одарён Ян, и тайно обучает его премудростям тайцзы.
Однажды в деревню прибывает устрашающая паровая машина, которой управляет Фан Цзыцзин, друг детства Юньян. Он подкупил чиновников, чтобы те разрешили построить ему железную дорогу, проходящую прямиком через деревню. Ян решает присоединиться к Юньян, чтобы победить Фан Цзыцзина и уничтожить машину. Этот храбрый поступок может растопить сердца местных жителей…
Сэмпл: http://sendfile.su/873495
Проверено на встроенном плейере ТВ LG 42LM669T
Качество: BDrip
Контейнер: MKV
Формат 3D: Half OverUnder / Вертикальная анаморфная стереопара
Видео кодек: x264
Аудио кодек: AC3
Видео: AVC / 23,976 fps / 1920х1080p / 11,2 Mbps
Аудио: Русский 48 KHz, AC3, 2 ch, 192kbps (Студия SOL PRO)
Аудио 2: Русский 48 KHz, AC3. 6 ch, 640 kbps (den904)
Субтитры: Английские

MediaInfo

Общее
Уникальный идентификатор : 177066626823049257526561912599460814159 (0x8535CAB8522C3ED787ECE00CCCC59D4F)
Полное имя : E:\Новая папка\TaiChiZero.3D.2012.BD3DRip.Half.OU.x264.3D-RuGroup .mkv
Формат : Matroska
Версия формата : Version 2
Размер файла : 8,40 Гбайт
Продолжительность : 1 ч. 38 м.
Общий поток : 12,2 Мбит/сек
Название фильма : TaiChi Zero 3D release 3D-RuGroup rip by StarStranger
Дата кодирования : UTC 2013-09-28 16:33:27
Программа кодирования : mkvmerge v5.8.0 ('No Sleep / Pillow') built on Sep 2 2012 15:37:04
Библиотека кодирования : libebml v1.2.3 + libmatroska v1.3.0
Видео
Идентификатор : 1
Формат : AVC
Формат/Информация : Advanced Video Codec
Профиль формата : High@L4.1
Параметр CABAC формата : Да
Параметр ReFrames формата : 4 кадра
Режим смешивания : Header stripping
Идентификатор кодека : V_MPEG4/ISO/AVC
Продолжительность : 1 ч. 38 м.
Битрейт : 11,1 Мбит/сек
Ширина : 1920 пикселей
Высота : 1080 пикселей
Соотношение сторон : 16:9
Режим частоты кадров : Постоянный
Частота кадров : 23,976 кадра/сек
Цветовое пространство : YUV
Субдискретизация насыщенности : 4:2:0
Битовая глубина : 8 бит
Тип развёртки : Прогрессивная
Бит/(Пиксели*Кадры) : 0.224
Размер потока : 7,66 Гбайт (91%)
Заголовок : rip by StarStranger
Библиотека кодирования : x264 core 128 r2216 198a7ea
Настройки программы : cabac=1 / ref=4 / deblock=1:-3:-3 / analyse=0x3:0x133 / me=umh / subme=9 / psy=1 / psy_rd=1.00:0.15 / mixed_ref=1 / me_range=32 / chroma_me=1 / trellis=2 / 8x8dct=1 / cqm=0 / deadzone=21,11 / fast_pskip=0 / chroma_qp_offset=-3 / threads=3 / lookahead_threads=1 / sliced_threads=0 / nr=0 / decimate=1 / interlaced=0 / bluray_compat=0 / constrained_intra=0 / bframes=7 / b_pyramid=2 / b_adapt=2 / b_bias=0 / direct=3 / weightb=1 / open_gop=0 / weightp=2 / keyint=250 / keyint_min=23 / scenecut=40 / intra_refresh=0 / rc_lookahead=60 / rc=crf / mbtree=1 / crf=18.0 / qcomp=0.70 / qpmin=0 / qpmax=69 / qpstep=4 / vbv_maxrate=50000 / vbv_bufsize=50000 / crf_max=0.0 / nal_hrd=none / ip_ratio=1.40 / aq=1:0.90
Default : Нет
Forced : Нет
Аудио #1
Идентификатор : 2
Формат : AC-3
Формат/Информация : Audio Coding 3
Расширение режима : CM (complete main)
Параметр Endianness формата : Big
Режим смешивания : Header stripping
Идентификатор кодека : A_AC3
Продолжительность : 1 ч. 38 м.
Вид битрейта : Постоянный
Битрейт : 192 Кбит/сек
Каналы : 2 канала
Расположение каналов : Front: L R
Частота : 48,0 КГц
Битовая глубина : 16 бит
Метод сжатия : С потерями
Размер потока : 135 Мбайт (2%)
Язык : Russian
Default : Да
Forced : Нет
Аудио #2
Идентификатор : 3
Формат : AC-3
Формат/Информация : Audio Coding 3
Расширение режима : CM (complete main)
Параметр Endianness формата : Big
Режим смешивания : Header stripping
Идентификатор кодека : A_AC3
Продолжительность : 1 ч. 38 м.
Вид битрейта : Постоянный
Битрейт : 640 Кбит/сек
Каналы : 6 каналов
Расположение каналов : Front: L C R, Side: L R, LFE
Частота : 48,0 КГц
Битовая глубина : 16 бит
Метод сжатия : С потерями
Размер потока : 450 Мбайт (5%)
Заголовок : VO (den904) проект "Нет в Кино"
Язык : Russian
Default : Нет
Forced : Нет
Текст
Идентификатор : 4
Формат : UTF-8
Идентификатор кодека : S_TEXT/UTF8
Идентификатор кодека/Информация : UTF-8 Plain Text
Заголовок : full
Язык : English
Default : Нет
Forced : Нет
Меню
00:00:00.000 : :01
00:09:28.651 : :02
00:17:01.854 : :03
00:25:25.649 : :04
00:33:32.594 : :05
00:41:11.594 : :06
00:51:42.975 : :07
00:59:38.116 : :08
01:05:58.079 : :09
01:13:33.242 : :10
01:21:55.327 : :11
01:31:43.790 : :12

Скриншоты

[Профиль] [ЛС]
Кто просматривает тему:

Форум Тема Автор Размер
ТВ - Шоу 73-я Церемония вручения премии Золотой глобус 2016 / The 73rd Golden Globe Awards 2016 (2016) HDTVRip 720p BOSS 2.39 GB
Фантастика и фэнтези Алексей Гравицкий, Михаил Костин – Живое и мертвое 02. Ученик мага (2015) MP3 Swager 700 MB
Фильмы 2011 года Бесстрашные ученики / The Disciples (2000) VHSRip от bittracker Белочка 731 MB
R.G.TorrentFilm Video Дарт Мол: Ученик / Darth Maul: Apprentice (Шоун Бу / Shawn Bu) [2016, Германия, Короткометражка, фантастика, боевик, WEB-DLRip] MVO (AniLibria) Один 777 284 MB
Иностранные языки Денис Шевчук | Английский словарь газетный для ускоренного изучения английского языка. Часть 1,2,3 (2009) [FB2] sergej644 2 MB
Фантастика и фэнтези Джозеф Дилейни - Ученик ведьмака (2015) MP3 Swager 229 MB
ТВ - Шоу Золотой Граммофон 2016. XXI Церемония вручения Премии (полная версия 19.11) (2016) WEB-DL 720p достали все 4.67 GB
Фильмы (HD DVD, Blu-ray и BDRemux) Лекарь: Ученик Авиценны / The Physician (2013) BDRemux 1080р | ESP Transfer | D | Лицензия Russian Mafia 33.01 GB
Показать сообщения:    

Текущее время: Сегодня 19:37

Часовой пояс: GMT



Вы не можете начинать темы
Вы не можете отвечать на сообщения
Вы не можете редактировать свои сообщения
Вы не можете удалять свои сообщения
Вы не можете голосовать в опросах
Вы не можете прикреплять файлы к сообщениям
Вы не можете скачивать файлы