Ученик звездочета (Асиф Магеррамов) [1983, СССР, Пластилиновый мультфильм, SATRip]

 
Автор Сообщение

TorrentFilm ®

Пол:

Стаж: 2 года

Сообщений: 7741



Награды: Нет

Торрент-статистика

Создавать темы 29-Дек-2015 00:09

[Цитировать]

Ученик звездочета
Страна: СССР
Жанр: Пластилиновый мультфильм
Продолжительность: 00:09:56
Год выпуска: 1983
Русские субтитры: нет
Режиссёр: Асиф Магеррамов
Роли озвучивали: З. Гердт
Описание: В этом мультфильме, снятом по мотивам народных сказок, рассказывается о подростке, который хочет разбогатеть несложными путями и в результате своей жадности оказывается в смешном положении
Доп. информация: «Азербайджанфильм»
художник-постановщик А.Магеррамов,Е.Голубева
Композитор Н.Аливердибеков
Сценарий М.Муранханова
Звукооператор Акиф Нуриев
Раздача группы:
Качество: SATRip
Формат: AVI
Видео: 704x528 (1.33:1), 25 fps, XviD build 50 ~1959 kbps avg, 0.21 bit/pixel
Аудио: 44.100 kHz, MPEG Layer 3, 2 ch, ~192.00 kbps avg
Субтитры: нет

Подробные технические данные

Format : AVIFormat/Info : Audio Video InterleaveFile size : 154 MiBDuration : 9mn 56sOverall bit rate : 2 165 KbpsWriting application : MEncoder SVN-r30881(20100311-gcc4.3.3)Writing library : MPlayer
VideoID : 0Format : MPEG-4 VisualFormat profile : Advanced Simple@L5Format settings, BVOP : 2Format settings, QPel : NoFormat settings, GMC : No warppointsFormat settings, Matrix : Default (H.263)Codec ID : XVIDCodec ID/Hint : XviDDuration : 9mn 56sBit rate : 1 960 KbpsWidth : 704 pixelsHeight : 528 pixelsDisplay aspect ratio : 5:4Original display aspect ratio : 4:3Frame rate : 25.000 fpsColor space : YUVChroma subsampling : 4:2:0Bit depth : 8 bitsScan type : ProgressiveCompression mode : LossyBits/(Pixel*Frame) : 0.211Stream size : 139 MiB (91%)Writing library : XviD 1.2.1 (UTC 2008-12-04)
AudioID : 1Format : MPEG AudioFormat version : Version 1Format profile : Layer 3Mode : Joint stereoMode extension : MS StereoCodec ID : 55Codec ID/Hint : MP3Duration : 9mn 56sBit rate mode : ConstantBit rate : 192 KbpsChannel(s) : 2 channelsSampling rate : 44.1 KHzCompression mode : LossyDelay relative to video : 80msStream size : 13.7 MiB (9%)Alignment : Aligned on interleavesInterleave, duration : 26 ms (0.65 video frame)Interleave, preload duration : 522 msWriting library : LAME3.98

Скриншоты

[Профиль] [ЛС]
Кто просматривает тему:

Форум Тема Автор Размер
ТВ - Шоу 73-я Церемония вручения премии Золотой глобус 2016 / The 73rd Golden Globe Awards 2016 (2016) HDTVRip 720p BOSS 2.39 GB
Фантастика и фэнтези Алексей Гравицкий, Михаил Костин – Живое и мертвое 02. Ученик мага (2015) MP3 Swager 700 MB
Фильмы 2011 года Бесстрашные ученики / The Disciples (2000) VHSRip от bittracker Белочка 731 MB
R.G.TorrentFilm Video Дарт Мол: Ученик / Darth Maul: Apprentice (Шоун Бу / Shawn Bu) [2016, Германия, Короткометражка, фантастика, боевик, WEB-DLRip] MVO (AniLibria) Один 777 284 MB
Иностранные языки Денис Шевчук | Английский словарь газетный для ускоренного изучения английского языка. Часть 1,2,3 (2009) [FB2] sergej644 2 MB
Фантастика и фэнтези Джозеф Дилейни - Ученик ведьмака (2015) MP3 Swager 229 MB
ТВ - Шоу Золотой Граммофон 2016. XXI Церемония вручения Премии (полная версия 19.11) (2016) WEB-DL 720p достали все 4.67 GB
Фильмы (HD DVD, Blu-ray и BDRemux) Лекарь: Ученик Авиценны / The Physician (2013) BDRemux 1080р | ESP Transfer | D | Лицензия Russian Mafia 33.01 GB
Показать сообщения:    

Текущее время: Сегодня 20:45

Часовой пояс: GMT



Вы не можете начинать темы
Вы не можете отвечать на сообщения
Вы не можете редактировать свои сообщения
Вы не можете удалять свои сообщения
Вы не можете голосовать в опросах
Вы не можете прикреплять файлы к сообщениям
Вы не можете скачивать файлы