Уцелевший / Lone Survivor (2013) BDRip 1080p от HQCLUB | NOR Transfer | Лицензия

 
Автор Сообщение

Russian Mafia ®

Пол:

Стаж: 1 год 8 месяцев

Сообщений: 4257



Награды: 10 (Подробнее)

Mega Seeder 1 (Количество: 1) Top Releaser 2 (Количество: 1) За внесенный вклад в развитие сайта (Количество: 1)
Торрент-статистика

Создавать темы 08-Сен-2015 10:16

[Цитировать]

Информация о фильме:
Название: Уцелевший
Оригинальное название: Lone Survivor
Год выхода: 2013
Жанр: военный, боевик, драма
Режиссер: Питер Берг
В ролях: Марк Уолберг, Тейлор Китч, Эмиль Хирш, Бен Фостер, Юсуф Азами, Али Сулиман, Эрик Бана, Александр Людвиг, Рич Тинг, Дэн Билзериан
О фильме: Афганистан, 2005 год. Команда американских спецназовцев получает задание обезвредить известного лидера талибов Ахмада Шаха. Попав в ловушку, солдаты принимают неравный кровопролитный бой, и все они погибают героями. Все, кроме одного. Для уцелевшего Маркуса Латтрела бой только начинается: он любой ценой должен выжить и пробраться к «своим». Когда почти всё потеряно, ему решается помочь Гулаб — мирный человек, ненавидящий войну.«Live to Tell the Story»Выпущено: США, Emmett/Furla Films, Envision Entertainment, Film 44
Продолжительность: 02:01:21
Перевод: Профессиональный (полное дублирование) + Авторский (одноголосый) + Оригинал (английский)
Субтитры: русские (полные), английские (полные)
Главы: присутствуют, сохранены оригинальные
Файл:
Формат: MKV
Качество: BDRip 1080p
Видео: 1920x800 (2.40:1), 23.976 fps, MPEG-4 AVC, ~16200 kbps avg, 0.440 bit/pixel
Аудио #1: 48 kHz, DTS Dolby Digital, 3/2 (L,C,R,l,r) + LFE ch, ~1509 kbps (DUB)
Аудио #2: 48 kHz, DTS Dolby Digital, 3/2 (L,C,R,l,r) + LFE ch, ~1509 kbps (AVO.GAVRILOV)
Аудио #3: 48 kHz, DTS Dolby Digital, 3/2 (L,C,R,l,r) + LFE ch, ~1509 kbps (ENG)

MediaInfo

Уникальный идентификатор : 224269443376278157704890352839935325666 (0xA8B8B941D7F45253917F9AF6FE3AF5E2)
Полное имя : Lone.Survivor.2013.1080p.BluRay.2xRus.Eng.-HQCLUB.mkv
Формат : Matroska
Версия формата : Version 2
Размер файла : 17,6 Гбайт
Продолжительность : 2 ч. 1 м.
Общий поток : 20,7 Мбит/сек
Дата кодирования : UTC 2014-08-09 10:25:59
Программа кодирования : mkvmerge v5.2.0 ('I can't explain') built on Dec 18 2011 18:12:03
Библиотека кодирования : libebml v1.2.3 + libmatroska v1.3.0
Видео
Идентификатор : 1
Формат : AVC
Формат/Информация : Advanced Video Codec
Профиль формата : High@L4.1
Параметр CABAC формата : Да
Параметр ReFrames формата : 4 кадра
Идентификатор кодека : V_MPEG4/ISO/AVC
Продолжительность : 2 ч. 1 м.
Битрейт : 16,2 Мбит/сек
Ширина : 1920 пикселей
Высота : 800 пикселей
Соотношение сторон : 2,40:1
Режим частоты кадров : Постоянный
Частота кадров : 23,976 кадра/сек
Цветовое пространство : YUV
Субдискретизация насыщенности : 4:2:0
Битовая глубина : 8 бит
Тип развёртки : Прогрессивная
Бит/(Пиксели*Кадры) : 0.440
Размер потока : 13,4 Гбайт (76%)
Заголовок : Уцелевший / Lone Survivor (2013) BDRip 1080p by HQCLUB [Elheym]
Библиотека кодирования : x264 core 142 r2453 ea0ca51
Настройки программы : cabac=1 / ref=5 / deblock=1:-3:-2 / analyse=0x3:0x113 / me=umh / subme=11 / psy=1 / psy_rd=1.10:0.00 / mixed_ref=1 / me_range=32 / chroma_me=1 / trellis=2 / 8x8dct=1 / cqm=0 / deadzone=21,11 / fast_pskip=1 / chroma_qp_offset=-4 / threads=6 / lookahead_threads=1 / sliced_threads=0 / nr=0 / decimate=1 / interlaced=0 / bluray_compat=0 / constrained_intra=0 / bframes=9 / b_pyramid=1 / b_adapt=2 / b_bias=0 / direct=3 / weightb=1 / open_gop=0 / weightp=2 / keyint=240 / keyint_min=23 / scenecut=40 / intra_refresh=0 / rc_lookahead=40 / rc=2pass / mbtree=0 / bitrate=16200 / ratetol=1.0 / qcomp=0.60 / qpmin=10 / qpmax=69 / qpstep=4 / cplxblur=20.0 / qblur=0.5 / vbv_maxrate=50000 / vbv_bufsize=62500 / nal_hrd=none / filler=0 / ip_ratio=1.40 / pb_ratio=1.30 / aq=1:0.90
Язык : English
Default : Да
Forced : Нет
Аудио #1
Идентификатор : 2
Формат : DTS
Формат/Информация : Digital Theater Systems
Режим : 16
Параметр Endianness формата : Big
Идентификатор кодека : A_DTS
Продолжительность : 2 ч. 1 м.
Вид битрейта : Постоянный
Битрейт : 1509 Кбит/сек
Каналы : 6 каналов
Расположение каналов : Front: L C R, Side: L R, LFE
Частота : 48,0 КГц
Битовая глубина : 16 бит
Метод сжатия : С потерями
Размер потока : 1,28 Гбайт (7%)
Заголовок : DTS 5.1 @ 1509 kbps - Dub, EUR
Язык : Russian
Default : Нет
Forced : Нет
Аудио #2
Идентификатор : 3
Формат : DTS
Формат/Информация : Digital Theater Systems
Режим : 16
Параметр Endianness формата : Big
Идентификатор кодека : A_DTS
Продолжительность : 2 ч. 1 м.
Вид битрейта : Постоянный
Битрейт : 1509 Кбит/сек
Каналы : 6 каналов
Расположение каналов : Front: L C R, Side: L R, LFE
Частота : 48,0 КГц
Битовая глубина : 24 бит
Метод сжатия : С потерями
Размер потока : 1,28 Гбайт (7%)
Заголовок : DTS 5.1 @ 1509 kbps - AVO, Gavrilov
Язык : Russian
Default : Нет
Forced : Нет
Аудио #3
Идентификатор : 4
Формат : DTS
Формат/Информация : Digital Theater Systems
Режим : 16
Параметр Endianness формата : Big
Идентификатор кодека : A_DTS
Продолжительность : 2 ч. 1 м.
Вид битрейта : Постоянный
Битрейт : 1509 Кбит/сек
Каналы : 6 каналов
Расположение каналов : Front: L C R, Side: L R, LFE
Частота : 48,0 КГц
Битовая глубина : 24 бит
Метод сжатия : С потерями
Размер потока : 1,28 Гбайт (7%)
Заголовок : DTS 5.1 @ 1509 kbps - Original
Язык : English
Default : Нет
Forced : Нет
Текст #1
Идентификатор : 5
Формат : UTF-8
Идентификатор кодека : S_TEXT/UTF8
Идентификатор кодека/Информация : UTF-8 Plain Text
Заголовок : Full
Язык : Russian
Default : Нет
Forced : Нет
Текст #2
Идентификатор : 6
Формат : UTF-8
Идентификатор кодека : S_TEXT/UTF8
Идентификатор кодека/Информация : UTF-8 Plain Text
Заголовок : Full
Язык : English
Default : Нет
Forced : Нет
Меню
00:00:00.000 : :Chapter 01
00:03:43.181 : :Chapter 02
00:12:39.550 : :Chapter 03
00:20:02.492 : :Chapter 04
00:26:39.764 : :Chapter 05
00:33:08.236 : :Chapter 06
00:39:37.208 : :Chapter 07
00:45:02.824 : :Chapter 08
00:50:11.174 : :Chapter 09
00:54:28.181 : :Chapter 10
01:01:20.301 : :Chapter 11
01:08:44.537 : :Chapter 12
01:15:54.966 : :Chapter 13
01:20:48.635 : :Chapter 14
01:26:12.457 : :Chapter 15
01:31:18.598 : :Chapter 16
01:38:46.921 : :Chapter 17
01:42:21.218 : :Chapter 18
01:52:00.004 : :Chapter 19
01:56:46.124 : :Chapter 20
02:01:16.018 : :Chapter 21

x264 log

x264 [info]: frame I:1384 Avg QP:14.05 size:268168
x264 [info]: frame P:59078 Avg QP:15.00 size:131016
x264 [info]: frame B:114104 Avg QP:16.58 size: 58022
x264 [info]: consecutive B-frames: 11.4% 9.5% 17.0% 28.5% 12.1% 13.2% 3.9% 2.4% 0.9% 1.1%
x264 [info]: ref P L0: 65.3% 13.5% 13.6% 6.2% 1.4% 0.0%
x264 [info]: ref B L0: 88.0% 9.2% 2.8%
x264 [info]: ref B L1: 94.4% 5.6%
[Профиль] [ЛС]
Показать сообщения:    

Текущее время: Сегодня 22:40

Часовой пояс: GMT



Вы не можете начинать темы
Вы не можете отвечать на сообщения
Вы не можете редактировать свои сообщения
Вы не можете удалять свои сообщения
Вы не можете голосовать в опросах
Вы не можете прикреплять файлы к сообщениям
Вы не можете скачивать файлы