Уцелевший / Lone Survivor (2013) BDRip 720p | Лицензия

 
Автор Сообщение

Russian Mafia ®

Пол:

Стаж: 1 год 8 месяцев

Сообщений: 4257



Награды: 10 (Подробнее)

Top Releaser 5 (Количество: 1) Mega Seeder 4 (Количество: 1) Top Releaser 2 (Количество: 1)
Торрент-статистика

Создавать темы 08-Сен-2015 10:14

[Цитировать]

Информация о фильме
Название: Уцелевший
Оригинальное название: Lone Survivor
Год выхода: 2013
Жанр: боевик, драма, военный
Режиссер: Питер Берг
В ролях: Марк Уолберг, Тейлор Китч, Эмиль Хирш, Бен Фостер, Юсуф Азами, Али Сулиман, Эрик Бана, Александр Людвиг, Рич Тинг, Дэн Билзериан
О фильме: Афганистан, 2005 год. Команда американских спецназовцев получает задание обезвредить известного лидера талибов Ахмада Шаха. Попав в ловушку, солдаты принимают неравный кровопролитный бой, и все они погибают героями. Все, кроме одного. Для уцелевшего Маркуса Латтрела бой только начинается: он любой ценой должен выжить и пробраться к «своим». Когда почти всё потеряно, ему решается помочь Гулаб — мирный человек, ненавидящий войну.

Страна: США, Emmett Furla Films, Envision Entertainment, Film 44
Продолжительность: 02:01:14
Перевод: Профессиональный (полное дублирование)
Файл
Качество: BDRip 720p
Формат: MKV
Видео: MPEG4/AVC, 1280x536 (2.40:1), 4885 Кбит/сек, 24.000 кадра/сек
Аудио 1: AC3, 6 каналов, 640 Кбит/сек | Rus
Аудио 2: AC3, 6 каналов, 384 Кбит/сек | Eng
Субтитры: Русские, английские
Навигация по главам: Есть
Видеоряд: HDWinG

MediaInfo:

Общее
Уникальный идентификатор : 241897811019871798839398619970116268532 (0xB5FBD2E2C0FE152C80DDD68C85A431F4)
Полное имя : Lone Survivor. (2013) BDRip 720p.mkv
Формат : Matroska
Версия формата : Version 2
Размер файла : 5,11 Гбайт
Продолжительность : 2 ч. 1 м.
Общий поток : 6029 Кбит/сек
Дата кодирования : UTC 2014-03-23 22:14:41
Программа кодирования : mkvmerge v5.8.0 ('No Sleep / Pillow') built on Sep 2 2012 15:37:04
Библиотека кодирования : libebml v1.2.3 + libmatroska v1.3.0
Видео
Идентификатор : 1
Формат : AVC
Формат/Информация : Advanced Video Codec
Профиль формата : High@L4.1
Параметр CABAC формата : Да
Параметр ReFrames формата : 12 кадров
Идентификатор кодека : V_MPEG4/ISO/AVC
Продолжительность : 2 ч. 1 м.
Битрейт : 4885 Кбит/сек
Ширина : 1280 пикселей
Высота : 536 пикселей
Соотношение сторон : 2,40:1
Режим частоты кадров : Постоянный
Частота кадров : 24,000 кадра/сек
Цветовое пространство : YUV
Субдискретизация насыщенности : 4:2:0
Битовая глубина : 8 бит
Тип развёртки : Прогрессивная
Бит/(Пиксели*Кадры) : 0.297
Размер потока : 4,14 Гбайт (81%)
Библиотека кодирования : x264 core 140 r2377+40 929f149 tMod [8-bit@all X86]
Настройки программы : cabac=1 / ref=12 / deblock=1:-3:-3 / analyse=0x3:0x133 / me=umh / subme=11 / psy=1 / fade_compensate=0.00 / psy_rd=1.00:0.00 / mixed_ref=1 / me_range=32 / chroma_me=1 / trellis=2 / 8x8dct=1 / cqm=0 / deadzone=21,11 / fast_pskip=0 / chroma_qp_offset=-2 / threads=18 / lookahead_threads=4 / sliced_threads=0 / nr=0 / decimate=0 / interlaced=0 / bluray_compat=0 / constrained_intra=0 / fgo=0 / bframes=10 / b_pyramid=2 / b_adapt=2 / b_bias=0 / direct=3 / weightb=1 / open_gop=0 / weightp=2 / keyint=250 / keyint_min=24 / scenecut=40 / intra_refresh=0 / rc_lookahead=80 / rc=crf / mbtree=0 / crf=16.4300 / qcomp=0.72 / qpmin=0:0:0 / qpmax=69:69:69 / qpstep=4 / vbv_maxrate=50000 / vbv_bufsize=62500 / crf_max=0.0 / nal_hrd=none / filler=0 / ip_ratio=1.20 / pb_ratio=1.10 / aq=1:0.90 / aq-sensitivity=10.00 / aq-factor=1.00:1.00:1.00 / aq2=0 / aq3=0
Язык : English
Default : Да
Forced : Нет
Аудио #1
Идентификатор : 2
Формат : AC-3
Формат/Информация : Audio Coding 3
Расширение режима : CM (complete main)
Параметр Endianness формата : Big
Идентификатор кодека : A_AC3
Продолжительность : 2 ч. 1 м.
Вид битрейта : Постоянный
Битрейт : 640 Кбит/сек
Каналы : 6 каналов
Расположение каналов : Front: L C R, Side: L R, LFE
Частота : 48,0 КГц
Битовая глубина : 16 бит
Метод сжатия : С потерями
Размер потока : 555 Мбайт (11%)
Заголовок : Rus | 640 Kbps
Язык : Russian
Default : Да
Forced : Нет
Аудио #2
Идентификатор : 3
Формат : AC-3
Формат/Информация : Audio Coding 3
Расширение режима : CM (complete main)
Параметр Endianness формата : Big
Идентификатор кодека : A_AC3
Продолжительность : 2 ч. 1 м.
Вид битрейта : Постоянный
Битрейт : 384 Кбит/сек
Каналы : 6 каналов
Расположение каналов : Front: L C R, Side: L R, LFE
Частота : 48,0 КГц
Битовая глубина : 16 бит
Метод сжатия : С потерями
Размер потока : 333 Мбайт (6%)
Заголовок : Eng | 384 Kbps
Язык : English
Default : Нет
Forced : Нет
Текст #1
Идентификатор : 4
Формат : UTF-8
Идентификатор кодека : S_TEXT/UTF8
Идентификатор кодека/Информация : UTF-8 Plain Text
Заголовок : Rus
Язык : Russian
Default : Нет
Forced : Нет
Текст #2
Идентификатор : 5
Формат : UTF-8
Идентификатор кодека : S_TEXT/UTF8
Идентификатор кодека/Информация : UTF-8 Plain Text
Заголовок : Eng
Язык : English
Default : Нет
Forced : Нет
Меню
00:00:00.000 : en:00:00:00.000
00:10:36.000 : en:00:10:36.000
00:15:38.000 : en:00:15:38.000
00:20:40.000 : en:00:20:40.000
00:25:41.000 : en:00:25:41.000
00:30:43.000 : en:00:30:43.000
00:35:44.000 : en:00:35:44.000
00:40:45.000 : en:00:40:45.000
00:45:45.000 : en:00:45:45.000
00:50:50.000 : en:00:50:50.000
00:55:57.000 : en:00:55:57.000
01:01:00.000 : en:01:01:00.000
01:06:06.000 : en:01:06:06.000
01:11:07.000 : en:01:11:07.000
01:16:10.000 : en:01:16:10.000
01:21:12.000 : en:01:21:12.000
01:26:13.000 : en:01:26:13.000
01:31:15.000 : en:01:31:15.000
01:36:15.000 : en:01:36:15.000
01:41:16.000 : en:01:41:16.000
01:46:20.000 : en:01:46:20.000
01:51:20.000 : en:01:51:20.000

Скриншоты:

[Профиль] [ЛС]
Показать сообщения:    

Текущее время: Сегодня 11:55

Часовой пояс: GMT



Вы не можете начинать темы
Вы не можете отвечать на сообщения
Вы не можете редактировать свои сообщения
Вы не можете удалять свои сообщения
Вы не можете голосовать в опросах
Вы не можете прикреплять файлы к сообщениям
Вы не можете скачивать файлы