Уцелевшая / Выжившая / Survivor (2015) HDRip-AVC от ExKinoRay | iTunes

 
Author Message

Swager ®

Gender:

Longevity: 3 years 9 months

Posts: 2126



: 4 ()

За внесенный вклад в развитие сайта (1) Mega Seeder 2 (1) Top Releaser 2 (1)
Торрент-статистика

Post 02-Jun-2019 06:50

[Quote]

Информация о фильме
Название: Уцелевшая (Выжившая)
Оригинальное название: Survivor
Год выпуска: 2015
Жанр: Боевик, триллер
Режиссер: Джеймс МакТиг
В ролях: Милла Йовович, Пирс Броснан, Дилан МакДермотт, Анджела Бассетт, Джеймс Д`Арси, Антония Томас, Фрэнсис де ла Тур, Роберт Форстер, Роджер Рис, Кори Джонсон
О фильме:
История закручена вокруг сотрудницы Госдепартамента США, которая была отправлена своим начальством в американское посольство в Лондоне, чтобы предотвратить проникновение в страну террористов. Однако все пошло не так, как планировалось: неожиданно героиня сама становится одной из главных подозреваемых. За преступления, в которых ее обвиняют — смертная казнь, поэтому она пускается в бега, чтобы доказать свою невиновность, а также предотвратить террористическую атаку на Нью-Йорк в канун Рождества....

Страна: США, Великобритания
Студия: Nu Image Films, Millennium Films, Winkler Films
Продолжительность: 01:36:28
Перевод: Дублированный | iTunes
Файл
Формат: MKV
Качество: HDRip-AVC
Видео: MPEG-4 AVC, 832x348, - 1004 Кбит/с
Аудио: AAC-HE, 2 ch, - 76 Кбит/с
Субтитры: Нет

MI

Общее
Уникальный идентификатор : 106454670378865727744449276155541454592 (0x50166C7A3DC0CDAA54E9619D3D19FF00)
Полное имя : D:MOVIESUtcelevshaya.2015.HDRip-AVC.ExKinoRay.mkv
Формат : Matroska
Версия формата : Version 4 / Version 2
Размер файла : 746 Мбайт
Продолжительность : 1 ч. 36 м.
Общий поток : 1081 Кбит/сек
Дата кодирования : UTC 2019-06-02 04:54:42
Программа кодирования : mkvmerge v32.0.0 ('Astral Progressions') 64-bit
Библиотека кодирования : libebml v1.3.7 + libmatroska v1.5.0
Видео
Идентификатор : 1
Формат : AVC
Формат/Информация : Advanced Video Codec
Профиль формата : High@L4.1
Параметр CABAC формата : Да
Параметр RefFrames формата : 12 кадров
Идентификатор кодека : V_MPEG4/ISO/AVC
Продолжительность : 1 ч. 36 м.
Битрейт : 1004 Кбит/сек
Ширина : 832 пикселя
Высота : 348 пикселей
Соотношение сторон : 2,40:1
Режим частоты кадров : Постоянный
Частота кадров : 23,976 (24000/1001) кадра/сек
Цветовое пространство : YUV
Субдискретизация насыщенности : 4:2:0
Битовая глубина : 8 бит
Тип развёртки : Прогрессивная
Бит/(Пиксели*Кадры) : 0.145
Размер потока : 692 Мбайт (93%)
Библиотека кодирования : x264 core 152 r2851kMod ba24899
Настройки программы : cabac=1 / ref=12 / deblock=1:-3:-3 / analyse=0x3:0x133 / me=umh / subme=10 / psy=1 / fade_compensate=0.00 / psy_rd=1.00:0.14 / mixed_ref=1 / me_range=32 / chroma_me=1 / trellis=2 / 8x8dct=1 / cqm=0 / deadzone=21,11 / fast_pskip=0 / chroma_qp_offset=-3 / threads=6 / lookahead_threads=1 / sliced_threads=0 / nr=0 / decimate=0 / interlaced=0 / bluray_compat=0 / constrained_intra=0 / bframes=12 / b_pyramid=2 / b_adapt=2 / b_bias=0 / direct=3 / weightb=1 / open_gop=0 / weightp=2 / keyint=240 / keyint_min=23 / scenecut=40 / intra_refresh=0 / rc_lookahead=40 / rc=2pass / mbtree=1 / bitrate=1004 / ratetol=1.0 / qcomp=0.60 / qpmin=0 / qpmax=69 / qpstep=4 / cplxblur=20.0 / qblur=0.5 / ip_ratio=1.40 / aq=3:1.00
Default : Да
Forced : Нет
Аудио
Идентификатор : 2
Формат : AAC
Формат/Информация : Advanced Audio Codec
Профиль формата : HE-AAC / LC
Идентификатор кодека : A_AAC
Продолжительность : 1 ч. 36 м.
Битрейт : 76,0 Кбит/сек
Каналы : 2 канала
Расположение каналов : Front: L R
Частота : 48,0 КГц / 24,0 КГц
Частота кадров : 23,438 кадра/сек (1024 SPF)
Метод сжатия : С потерями
Задержка видео : 31 мс.
Размер потока : 52,4 Мбайт (7%)
Язык : Russian
Default : Да
Forced : Нет
Меню
00:00:00.000 : :Chapter 01
00:07:14.559 : :Chapter 02
00:16:04.672 : :Chapter 03
00:24:17.580 : :Chapter 04
00:32:13.890 : :Chapter 05
00:39:44.297 : :Chapter 06
00:47:37.478 : :Chapter 07
00:56:07.030 : :Chapter 08
01:03:35.186 : :Chapter 09
01:11:51.265 : :Chapter 10
01:19:03.488 : :Chapter 11
01:27:43.256 : :Chapter 12

Скриншоты


[Profile] [PM]
Display posts from previous:    

The time now is: Today 12:49

All times are GMT



You cannot post new topics in this forum
You cannot reply to topics in this forum
You cannot edit your posts in this forum
You cannot delete your posts in this forum
You cannot vote in polls in this forum
You cannot attach files in this forum
You cannot download files in this forum