Уцелевшая / Survivor (Джеймс МакТиг / James McTeigue) [2015, США, Великобритания, боевик, триллер, криминал, BDRip-AVC] VO

 
Автор Сообщение

TorrentFilm ®

Пол:

Стаж: 2 года

Сообщений: 7741



Награды: Нет

Торрент-статистика

Создавать темы 24-Июн-2015 00:09

[Цитировать]

Уцелевшая / Survivor
Страна: США, Великобритания
Жанр: боевик, триллер, криминал
Год выпуска: 2015
Продолжительность: 01:36:27
Перевод: Одноголосый закадровый Хихикающий доктор по переводу Enigma
Cубтитры: нет
Оригинальная аудиодорожка: нет
Режиссер: Джеймс МакТиг / James McTeigue
В ролях: Милла Йовович, Пирс Броснан, Дилан МакДермотт, Анджела Бассетт, Джеймс Д’Арси, Антония Томас, Фрэнсис де ла Тур, Роберт Форстер, Роджер Рис, Кори Джонсон, Шон Тил,
Катаржина Волейнио
.
Описание: История закручена вокруг сотрудницы Госдепартамента США, которая была отправлена своим начальством в американское посольство в Лондоне, чтобы предотвратить проникновение в страну террористов. Однако все пошло не так, как планировалось: неожиданно героиня сама становится одной из главных подозреваемых. За преступления, в которых ее обвиняют — смертная казнь, поэтому она пускается в бега, чтобы доказать свою невиновность, а также предотвратить террористическую атаку на Нью-Йорк в канун Рождества.


Качество видео: BDRip-AVC / Survivor.2015.1080p.BluRay.REMUX.AVC.DD5.1-RARBG
Формат видео: MKV
Видео: MPEG-4 AVC Video / 2 844 Кбит/сек / 1120x468 / 23.976 / 2.40:1 / High Profile 4.1
Аудио: AC3 / Dolby Digital Audio / 5.1 / 48 kHz / 384 kbps |Хихикающий доктор|

FAQ по просмотру MKV/h.264/AAC

•Смогу ли я запустить AVC фильм на своём компьютере?
•Сампл из раздачи не воспроизводится/тормозит или отсутствует звук/изображение. Что делать?
•Что такое H.264/AVC и зачем он нужен?
•Что за дурацкий формат .MKV?
•Почему MKV? Чем AVI хуже?
•Не могу переключить/включить/выключить аудио/видео дорожки и/или субтитры. Что делать?
•Как сделать так, чтобы по умолчанию при просмотре MKV файлов нужные/ненужные субтитры были включены/выключены, и/или сразу проигрывалась дорожка на нужном мне языке?
•Будут ли фильмы в таком формате проигрываться на бытовых плеерах без компьютера?
•Проигрываю фильм, а картинка очень сильно отличается от скринов/бледная/перенасыщенная. Что не так?
•Можно ли сконвертировать AVC в DVD?
•Почему сплюснута картинка / в характеристиках видео указано два разрешения / что такое анаморфное разрешение?
•Зачем релизёры обманывают качающих и пишут в заголовке 720p/1080p, а на самом деле раздают видеоматериалы в непонятных разрешениях?
•Можно ли вывести многоканальный FLAC/AAC-звук на внешний ресивер?
•У меня 2-канальная акустика/стереонаушники. При просмотре видео почти не слышно/совсем не слышно речь/разговоры, играют только фоновые звуки. Что делать?
•У меня стоит CoreAVC версии 1.9.5 или младше. При воспроизведении картинка рассыпается на квадраты и разноцветные пятна. Кривой рип?
•Всё прочитал(-а), решения своей проблемы не нашёл(-шла)/не смог(-ла) разобраться. Что делать?

MediaInfo

General
Unique ID                                : 189893320295971578814437882296358754146 (0x8EDC1F88B4A60D97A61268A2D01D5762)
Complete name                            : C:\Users\pim72\Desktop\раздачи\Survivor.2015.BDRip-AVC_[torrentfilm.net].mkv
Format                                   : Matroska
Format version                           : Version 4 / Version 2
File size                                : 2.17 GiB
Duration                                 : 1h 36mn
Overall bit rate                         : 3 227 Kbps
Movie name                               : Survivor.2015
Encoded date                             : UTC 2015-06-21 10:16:29
Writing application                      : mkvmerge v7.9.0 ('Birds') 64bit
Writing library                          : libebml v1.3.1 + libmatroska v1.4.2
DURATION                                 : 01:36:24.896000000
NUMBER_OF_FRAMES                         : 180778
NUMBER_OF_BYTES                          : 277675008
_STATISTICS_WRITING_APP                  : mkvmerge v7.9.0 ('Birds') 64bit
_STATISTICS_WRITING_DATE_UTC             : 2015-06-21 10:16:29
_STATISTICS_TAGS                         : BPS DURATION NUMBER_OF_FRAMES NUMBER_OF_BYTES
Video
ID                                       : 1
Format                                   : AVC
Format/Info                              : Advanced Video Codec
Format profile                           : High@L4.1
Format settings, CABAC                   : Yes
Format settings, ReFrames                : 10 frames
Codec ID                                 : V_MPEG4/ISO/AVC
Duration                                 : 1h 36mn
Bit rate                                 : 2 844 Kbps
Width                                    : 1 120 pixels
Height                                   : 468 pixels
Display aspect ratio                     : 2.40:1
Frame rate mode                          : Constant
Frame rate                               : 23.976 fps
Color space                              : YUV
Chroma subsampling                       : 4:2:0
Bit depth                                : 8 bits
Scan type                                : Progressive
Bits/(Pixel*Frame)                       : 0.226
Stream size                              : 1.87 GiB (86%)
Title                                    : Survivor.2015.BDRip-AVC_[torrentfilm.net]
Writing library                          : x264 core 146 r2538 121396c
Encoding settings                        : cabac=1 / ref=10 / deblock=1:-3:-2 / analyse=0x3:0x133 / me=umh / subme=11 / psy=1 / psy_rd=0.95:0.15 / mixed_ref=1 / me_range=48 / chroma_me=1 / trellis=2 / 8x8dct=1 / cqm=0 / deadzone=21,11 / fast_pskip=0 / chroma_qp_offset=-3 / threads=6 / lookahead_threads=1 / sliced_threads=0 / nr=0 / decimate=1 / interlaced=0 / bluray_compat=0 / constrained_intra=0 / bframes=7 / b_pyramid=2 / b_adapt=2 / b_bias=0 / direct=3 / weightb=1 / open_gop=0 / weightp=2 / keyint=240 / keyint_min=23 / scenecut=40 / intra_refresh=0 / rc_lookahead=60 / rc=2pass / mbtree=1 / bitrate=2844 / ratetol=1.0 / qcomp=0.60 / qpmin=0 / qpmax=69 / qpstep=4 / cplxblur=20.0 / qblur=0.5 / ip_ratio=1.40 / aq=2:0.90
Language                                 : English
Default                                  : Yes
Forced                                   : No
Audio
ID                                       : 2
Format                                   : AC-3
Format/Info                              : Audio Coding 3
Mode extension                           : CM (complete main)
Format settings, Endianness              : Big
Codec ID                                 : A_AC3
Duration                                 : 1h 36mn
Bit rate mode                            : Constant
Bit rate                                 : 384 Kbps
Channel(s)                               : 6 channels
Channel positions                        : Front: L C R, Side: L R, LFE
Sampling rate                            : 48.0 KHz
Bit depth                                : 16 bits
Compression mode                         : Lossy
Stream size                              : 265 MiB (12%)
Title                                    : Одноголосый закадровый (Хихикающий доктор по переводу Enigma)
Language                                 : Russian
Default                                  : Yes
Forced                                   : No
Menu
00:00:00.000                             : :Chapter 01
00:07:14.559                             : :Chapter 02
00:16:04.672                             : :Chapter 03
00:24:17.580                             : :Chapter 04
00:32:13.890                             : :Chapter 05
00:39:44.297                             : :Chapter 06
00:47:37.478                             : :Chapter 07
00:56:07.030                             : :Chapter 08
01:03:35.186                             : :Chapter 09
01:11:51.265                             : :Chapter 10
01:19:03.488                             : :Chapter 11
01:27:43.256                             : :Chapter 12
01:36:27.782                             : :Chapter 13

Скриншоты


[Профиль] [ЛС]
Показать сообщения:    

Текущее время: Сегодня 16:56

Часовой пояс: GMT



Вы не можете начинать темы
Вы не можете отвечать на сообщения
Вы не можете редактировать свои сообщения
Вы не можете удалять свои сообщения
Вы не можете голосовать в опросах
Вы не можете прикреплять файлы к сообщениям
Вы не можете скачивать файлы