Уходя в отрыв / Breaking Away (Питер Йетс / Peter Yates)[1979, драма, спорт, BDRip] 720p | P, A

 
Автор Сообщение

sergej644 ®

Пол:

Стаж: 4 года 11 месяцев

Сообщений: 6043

Откуда: Soviet Union



Награды: Нет

Торрент-статистика

Создавать темы 31-Май-2015 09:22

[Цитировать]

--Уходя в отрыв / Breaking Away
Информация о фильме
Название: Уходя в отрыв
Оригинальное название: Breaking Away
Год выхода: 1979
Жанр: драма, спорт, комедия
Режиссер: Питер Йетс / Peter Yates
В ролях: Деннис Кристофер / Dennis Christopher, Деннис Куэйд / Dennis Quaid, Дэниэл Стёрн / Daniel Stern, Джеки Эрл Хэйли / Jackie Earle Haley, Барбара Барри / Barbara Barrie, Пол Дули / Paul Dooley, Робин Дугласс / Robyn Douglass, Харт Бокнер / Hart Bochner
О фильме:
История четырех парней, закончивших школу и пока не определившихся со своим будущим. На этом распутье их застает режиссер Питер Йетс, начиная историю с момента, когда верные друзья по мушкетерскому принципу уходят с подработки на местный супермаркет, после того, как одного из них увольняют. Они идут на озеро, образовавшееся на месте каменоломни, которая обеспечивала город строительными материалами. Отсюда пошла презрительная кличка для местных жителей — резчики. Так их называют мажоры, приезжающие сюда на учебу в местном отделении университета штата Индиана. В этом конфликте с приезжими студентами раскрывается тема взросления, вокруг и около которой кружит фильм.-
Страна: США
Студия: Twentieth Century Fox Film Corporation
Продолжительность: 01:40:57.536
Перевод: Профессиональный (многоголосый, закадровый) 1 канал
Авторский одноголосый Rider
Файл
Кодек: h.264
Качество: BDRip 720p
Видео: 1280x688 (1.85:1), 23.976 fps, AVC, ~6900 Kbps, 0.327 bits/pixel
Звук:
Русский, 48.0 KHz, AC3, 1 ch, 192 Kbps MVO Первый Канал
Русский, 48.0 KHz, AC3, 1 ch, 192 Kbps VO Rider
Английский, 48.0 KHz, AC3, 1 ch, 448 Kbps
Субтитры: Английские, PGS

MI

Общее
Уникальный идентификатор                 : 224500103959234967648858142482517197230 (0xA8E525B3B4325FC4877B055C329C01AE)
Полное имя                               : E:FilmsUhodya_v_otriv.1979.BDRip720p.mkv
Формат                                   : Matroska
Версия формата                           : Version 4 / Version 2
Размер файла                             : 5,46 Гбайт
Продолжительность                        : 1 ч. 40 м.
Общий поток                              : 7741 Кбит/сек
Дата кодирования                         : UTC 2015-05-30 22:31:42
Программа кодирования                    : mkvmerge v7.9.0 ('Birds') 64bit
Библиотека кодирования                   : libebml v1.3.1 + libmatroska v1.4.2
_STATISTICS_WRITING_APP                  : mkvmerge v7.9.0 ('Birds') 64bit
_STATISTICS_WRITING_DATE_UTC             : 2015-05-30 22:31:42
_STATISTICS_TAGS                         : BPS DURATION NUMBER_OF_FRAMES NUMBER_OF_BYTES
DURATION                                 : 01:39:03.229000000
NUMBER_OF_FRAMES                         : 2264
NUMBER_OF_BYTES                          : 5804239
Видео
Идентификатор                            : 1
Формат                                   : AVC
Формат/Информация                        : Advanced Video Codec
Профиль формата                          : High@L4.1
Параметр CABAC формата                   : Да
Параметр ReFrames формата                : 9 кадров
Идентификатор кодека                     : V_MPEG4/ISO/AVC
Продолжительность                        : 1 ч. 40 м.
Битрейт                                  : 6900 Кбит/сек
Ширина                                   : 1280 пикселей
Высота                                   : 688 пикселей
Соотношение сторон                       : 1,85:1
Режим частоты кадров                     : Постоянный
Частота кадров                           : 23,976 кадра/сек
Цветовое пространство                    : YUV
Субдискретизация насыщенности            : 4:2:0
Битовая глубина                          : 8 бит
Тип развёртки                            : Прогрессивная
Бит/(Пиксели*Кадры)                      : 0.327
Размер потока                            : 4,76 Гбайт (87%)
Библиотека кодирования                   : x264 core 146 r2538 121396c
Настройки программы                      : cabac=1 / ref=9 / deblock=1:-3:-3 / analyse=0x3:0x133 / me=umh / subme=11 / psy=1 / psy_rd=1.10:0.15 / mixed_ref=1 / me_range=48 / chroma_me=1 / trellis=2 / 8x8dct=1 / cqm=0 / deadzone=21,11 / fast_pskip=0 / chroma_qp_offset=-3 / threads=8 / lookahead_threads=2 / sliced_threads=0 / nr=0 / decimate=0 / interlaced=0 / bluray_compat=0 / constrained_intra=0 / bframes=10 / b_pyramid=2 / b_adapt=2 / b_bias=0 / direct=3 / weightb=1 / open_gop=0 / weightp=2 / keyint=240 / keyint_min=23 / scenecut=40 / intra_refresh=0 / rc_lookahead=60 / rc=2pass / mbtree=0 / bitrate=6900 / ratetol=1.0 / qcomp=0.60 / qpmin=0 / qpmax=69 / qpstep=4 / cplxblur=20.0 / qblur=0.5 / vbv_maxrate=40000 / vbv_bufsize=50000 / nal_hrd=none / filler=0 / ip_ratio=1.40 / pb_ratio=1.30 / aq=1:1.00
Default                                  : Да
Forced                                   : Нет
Цветовой диапазон                        : Limited
Основные цвета                           : BT.709
Характеристики трансфера                 : BT.709
Коэффициенты матрицы                     : BT.709
Аудио #1
Идентификатор                            : 2
Формат                                   : AC-3
Формат/Информация                        : Audio Coding 3
Расширение режима                        : CM (complete main)
Параметр Endianness формата              : Big
Идентификатор кодека                     : A_AC3
Продолжительность                        : 1 ч. 40 м.
Вид битрейта                             : Постоянный
Битрейт                                  : 192 Кбит/сек
Каналы                                   : 1 канал
Расположение каналов                     : Front: C
Частота                                  : 48,0 КГц
Битовая глубина                          : 16 бит
Метод сжатия                             : С потерями
Размер потока                            : 139 Мбайт (2%)
Заголовок                                : MVO Perviy_Kanal
Язык                                     : Russian
Default                                  : Да
Forced                                   : Нет
Аудио #2
Идентификатор                            : 3
Формат                                   : AC-3
Формат/Информация                        : Audio Coding 3
Расширение режима                        : CM (complete main)
Параметр Endianness формата              : Big
Идентификатор кодека                     : A_AC3
Продолжительность                        : 1 ч. 40 м.
Вид битрейта                             : Постоянный
Битрейт                                  : 192 Кбит/сек
Каналы                                   : 1 канал
Расположение каналов                     : Front: C
Частота                                  : 48,0 КГц
Битовая глубина                          : 16 бит
Метод сжатия                             : С потерями
Размер потока                            : 139 Мбайт (2%)
Заголовок                                : VO Rider
Язык                                     : Russian
Default                                  : Нет
Forced                                   : Нет
Аудио #3
Идентификатор                            : 4
Формат                                   : AC-3
Формат/Информация                        : Audio Coding 3
Расширение режима                        : CM (complete main)
Параметр Endianness формата              : Big
Идентификатор кодека                     : A_AC3
Продолжительность                        : 1 ч. 40 м.
Вид битрейта                             : Постоянный
Битрейт                                  : 448 Кбит/сек
Каналы                                   : 1 канал
Расположение каналов                     : Front: C
Частота                                  : 48,0 КГц
Битовая глубина                          : 16 бит
Метод сжатия                             : С потерями
Размер потока                            : 324 Мбайт (6%)
Заголовок                                : Original
Язык                                     : English
Default                                  : Нет
Forced                                   : Нет
Текст
Идентификатор                            : 5
Формат                                   : PGS
Режим смешивания                         : zlib
Идентификатор кодека                     : S_HDMV/PGS
Идентификатор кодека/Информация          : Picture based subtitle format used on BDs/HD-DVDs
Язык                                     : English
Default                                  : Нет
Forced                                   : Нет
Меню
00:00:00.000                             : en:00:00:00.000
00:04:37.986                             : en:00:04:37.986
00:08:37.016                             : en:00:08:37.016
00:13:15.169                             : en:00:13:15.169
00:15:47.738                             : en:00:15:47.738
00:21:19.153                             : en:00:21:19.153
00:24:15.704                             : en:00:24:15.704
00:29:06.036                             : en:00:29:06.036
00:33:47.943                             : en:00:33:47.943
00:38:35.522                             : en:00:38:35.522
00:42:05.481                             : en:00:42:05.481
00:45:18.633                             : en:00:45:18.633
00:50:10.466                             : en:00:50:10.466
00:53:27.913                             : en:00:53:27.913
00:58:29.047                             : en:00:58:29.047
01:01:37.986                             : en:01:01:37.986
01:06:50.465                             : en:01:06:50.465
01:11:36.250                             : en:01:11:36.250
01:15:23.602                             : en:01:15:23.602
01:19:11.622                             : en:01:19:11.622
01:22:29.945                             : en:01:22:29.945
01:26:41.530                             : en:01:26:41.530
01:30:47.776                             : en:01:30:47.776
01:34:42.510                             : en:01:34:42.510

X264 log 2nd pass

frame I:894   Avg QP:17.72  size:121734
frame P:32433 Avg QP:20.50  size: 60052
frame B:111907 Avg QP:21.74  size: 28301

Скриншоты

Релиз от: Temperest
[Профиль] [ЛС]
Показать сообщения:    

Текущее время: Сегодня 00:34

Часовой пояс: GMT



Вы не можете начинать темы
Вы не можете отвечать на сообщения
Вы не можете редактировать свои сообщения
Вы не можете удалять свои сообщения
Вы не можете голосовать в опросах
Вы не можете прикреплять файлы к сообщениям
Вы не можете скачивать файлы