Утомленные солнцем 2: Цитадель (Никита Михалков) [2011, Россия, драма, военный, Blu-Ray Disc 1080p]

 
Автор Сообщение

TorrentFilm ®

Пол:

Стаж: 2 года

Сообщений: 7741



Награды: Нет

Торрент-статистика

Создавать темы 02-Янв-2016 00:00

[Цитировать]

Утомленные солнцем 2: Цитадель-«Ни шагу назад!»-Страна: Россия
Жанр: драма, военный
Год выпуска: 2011
Продолжительность: 02:37:07--Перевод: Не требуется
Cубтитры: Немецкие
Дополнительная аудиодорожка: Немецкий--Режиссер:
Никита Михалков
В ролях:
Никита Михалков (Котов), Надежда Михалкова (Котова), Анна Михалкова (Нюра роженица), Олег Меньшиков (Митя), Сергей Маковецкий (Лунин), Инна Чурикова (старуха), Роман Мадянов (Мележко), Сергей Степанченко (водитель полуторки), Александр Фисенко (Калинушкин), Дмитрий Дюжев (Ваня), Андрей Мерзликин (танкист Николай), Артур Смольянинов (Юрка)--Описание:Своей искалеченной судьбой заплатил комдив Котов за восстановление доброго имени. Он возвращается в дом, воспоминания о котором давали ему силы все эти страшные годы. Но то, что ждало в этом доме, его потрясло. Все изменилось, его хрупкий мир рухнул. Котову снова придется сражаться. За свое имя, за свою честь, за свою любовь, за свою Цитадель...-
-
kinopoisk-
-Тип релиза: Blu-ray 1080p
Контейнер: BDMV
Video: MPEG-4 AVC Video / 27997 kbps / 1080p / 24 fps / 16:9 / High Profile 4.1
Audio: German / DTS-HD Master Audio / 7.1 / 48 kHz / 5110 kbps / 24-bit (DTS Core: 5.1-ES / 48 kHz / 1509 kbps / 24-bit)
Audio: Russian / DTS-HD Master Audio / 5.1 / 48 kHz / 3574 kbps / 24-bit (DTS Core: 5.1 / 48 kHz / 1509 kbps / 24-bit)
Subtitle: German / 25,036 kbps
Subtitle: German / 0,416 kbpsрелиз от:

------------
Раздача от:

На диске

трейлер

Скриншоты


BDinfo

Disc Title: SUN_2_CITADEL_BD_EUR
Disc Size: 47 134 904 696 bytes
Protection: AACS
BD-Java: No
BDInfo: 0.5.2
Notes:
BDINFO HOME AND REPORTS SUBMISSION:
Cinema Squid
http://www.cinemasquid.com/Tools.aspx
INCLUDES FORUMS REPORT FOR:
Unofficial Blu-ray Audio and Video Specifications Thread
http://www.avsforum.com/avs-vb/showthread.php?t=760714
http://forum.blu-ray.com/showthread.php?t=3338
********************
PLAYLIST: 00002.MPLS
********************
Total   Video
Title                                                           Codec   Length  Movie Size      Disc Size       Bitrate Bitrate Main Audio Track                          Secondary Audio Track
-----                                                           ------  ------- --------------  --------------  ------- ------- ------------------                        ---------------------
00002.MPLS                                                      AVC     2:36:54 44 962 584 576  47 134 904 696  38,21   27,34   DTS-HD Master 7.1 5121Kbps (48kHz/24-bit)
DISC INFO:
Disc Title:     SUN_2_CITADEL_BD_EUR
Disc Size:      47 134 904 696 bytes
Protection:     AACS
BD-Java:        No
BDInfo:         0.5.2
PLAYLIST REPORT:
Name:                   00002.MPLS
Size:                   44 962 584 576 bytes
Length:                 2:36:54 (h:m:s)
Total Bitrate:          38,21 Mbps
Description:
VIDEO:
Codec                   Bitrate             Description
-----                   -------             -----------
MPEG-4 AVC Video        27341 kbps          1080p / 24 fps / 16:9 / High Profile 4.1
AUDIO:
Codec                           Language        Bitrate         Description
-----                           --------        -------         -----------
DTS-HD Master Audio             German          5121 kbps       7.1 / 48 kHz / 5121 kbps / 24-bit (DTS Core: 5.1-ES / 48 kHz / 1509 kbps / 24-bit)
DTS-HD Master Audio             Russian         3589 kbps       5.1 / 48 kHz / 3589 kbps / 24-bit (DTS Core: 5.1 / 48 kHz / 1509 kbps / 24-bit)
SUBTITLES:
Codec                           Language        Bitrate         Description
-----                           --------        -------         -----------
Presentation Graphics           German          34,224 kbps
Presentation Graphics           German          0,204 kbps
FILES:
Name            Time In         Length          Size            Total Bitrate
----            -------         ------          ----            -------------
00002.M2TS      0:00:00.000     1:42:54.375     29 226 835 968  37 869
00022.M2TS      1:42:54.375     0:53:59.833     15 735 748 608  38 856
CHAPTERS:
Number          Time In         Length          Avg Video Rate  Max 1-Sec Rate  Max 1-Sec Time  Max 5-Sec Rate  Max 5-Sec Time  Max 10Sec Rate  Max 10Sec Time  Avg Frame Size  Max Frame Size  Max Frame Time
------          -------         ------          --------------  --------------  --------------  --------------  --------------  --------------  --------------  --------------  --------------  --------------
1               0:00:00.000     0:13:32.833     22 871 kbps     38 711 kbps     00:04:57.875    33 775 kbps     00:04:53.875    32 933 kbps     00:01:26.375    119 111 bytes   364 891 bytes   00:01:58.125
2               0:13:32.833     0:17:18.791     28 507 kbps     34 905 kbps     00:27:39.791    33 187 kbps     00:27:33.625    33 026 kbps     00:17:58.916    148 475 bytes   435 644 bytes   00:24:11.333
3               0:30:51.625     0:12:45.375     29 131 kbps     35 006 kbps     00:43:19.333    33 258 kbps     00:43:16.208    33 010 kbps     00:34:29.625    151 722 bytes   455 075 bytes   00:43:20.375
4               0:43:37.000     0:22:40.208     26 526 kbps     35 250 kbps     00:53:05.708    33 234 kbps     00:53:06.416    33 038 kbps     00:44:53.291    138 157 bytes   471 098 bytes   00:45:11.125
5               1:06:17.208     0:28:58.416     26 399 kbps     35 180 kbps     01:06:18.083    33 248 kbps     01:06:47.625    33 034 kbps     01:06:41.625    137 496 bytes   481 574 bytes   01:06:18.125
6               1:35:15.625     0:21:11.375     28 871 kbps     35 436 kbps     01:43:16.541    33 239 kbps     01:44:05.791    33 050 kbps     01:48:32.250    150 371 bytes   489 655 bytes   01:40:53.708
7               1:56:27.000     0:04:04.416     22 834 kbps     34 876 kbps     01:58:42.000    32 756 kbps     01:58:40.708    29 951 kbps     01:58:36.000    118 928 bytes   316 758 bytes   01:58:42.708
8               2:00:31.416     0:05:14.583     23 513 kbps     34 498 kbps     02:04:09.041    33 033 kbps     02:05:40.958    32 883 kbps     02:04:41.041    122 463 bytes   335 001 bytes   02:04:16.541
9               2:05:46.000     0:07:39.625     29 230 kbps     35 315 kbps     02:06:42.875    33 162 kbps     02:13:16.208    32 968 kbps     02:05:59.833    152 238 bytes   359 357 bytes   02:06:10.833
10              2:13:25.625     0:13:36.000     29 124 kbps     36 394 kbps     02:22:01.291    33 261 kbps     02:25:47.708    33 004 kbps     02:22:20.875    151 688 bytes   490 987 bytes   02:20:52.208
11              2:27:01.625     0:05:12.791     31 231 kbps     35 590 kbps     02:29:26.166    33 221 kbps     02:29:48.875    32 997 kbps     02:29:43.875    162 662 bytes   509 406 bytes   02:27:01.791
12              2:32:14.416     0:04:39.791     29 541 kbps     35 339 kbps     02:33:01.500    33 143 kbps     02:33:54.875    33 076 kbps     02:32:52.500    153 881 bytes   499 047 bytes   02:33:02.541
STREAM DIAGNOSTICS:
File            PID             Type            Codec           Language                Seconds                 Bitrate                 Bytes           Packets
----            ---             ----            -----           --------                --------------          --------------          -------------   -----
00002.M2TS      4113 (0x1011)   0x1B            AVC                                     6174,208                26 997                  20 835 647 928  113 323 595
00002.M2TS      4352 (0x1100)   0x86            DTS-HD MA       deu (German)            6174,208                5 127                   3 956 955 120   22 469 482
00002.M2TS      4353 (0x1101)   0x86            DTS-HD MA       rus (Russian)           6174,208                3 597                   2 776 088 700   16 050 337
00002.M2TS      4608 (0x1200)   0x90            PGS             deu (German)            6174,208                39                      30 135 393      172 406
00002.M2TS      4609 (0x1201)   0x90            PGS             deu (German)            6174,208                0                       72 162          407
00022.M2TS      4113 (0x1011)   0x1B            AVC                                     3239,667                27 998                  11 338 222 663  61 666 062
00022.M2TS      4352 (0x1100)   0x86            DTS-HD MA       deu (German)            3239,667                5 111                   2 069 562 016   11 751 344
00022.M2TS      4353 (0x1101)   0x86            DTS-HD MA       rus (Russian)           3239,667                3 574                   1 447 507 840   8 371 879
00022.M2TS      4608 (0x1200)   0x90            PGS             deu (German)            3239,667                25                      10 139 028      58 232
00022.M2TS      4609 (0x1201)   0x90            PGS             deu (German)            3239,667                0                       168 463         974
QUICK SUMMARY:
Disc Title: SUN_2_CITADEL_BD_EUR
Disc Size: 47 134 904 696 bytes
Protection: AACS
BD-Java: No
Playlist: 00002.MPLS
Size: 44 962 584 576 bytes
Length: 2:36:54
Total Bitrate: 38,21 Mbps
Video: MPEG-4 AVC Video / 27341 kbps / 1080p / 24 fps / 16:9 / High Profile 4.1
Audio: German / DTS-HD Master Audio / 7.1 / 48 kHz / 5121 kbps / 24-bit (DTS Core: 5.1-ES / 48 kHz / 1509 kbps / 24-bit)
Audio: Russian / DTS-HD Master Audio / 5.1 / 48 kHz / 3589 kbps / 24-bit (DTS Core: 5.1 / 48 kHz / 1509 kbps / 24-bit)
Subtitle: German / 34,224 kbps
Subtitle: German / 0,204 kbps
********************
PLAYLIST: 00001.MPLS
********************
Total   Video
Title                                                           Codec   Length  Movie Size      Disc Size       Bitrate Bitrate Main Audio Track                          Secondary Audio Track
-----                                                           ------  ------- --------------  --------------  ------- ------- ------------------                        ---------------------
00001.MPLS                                                      AVC     1:42:54 29 226 835 968  47 134 904 696  37,87   27,00   DTS-HD Master 7.1 5127Kbps (48kHz/24-bit)
DISC INFO:
Disc Title:     SUN_2_CITADEL_BD_EUR
Disc Size:      47 134 904 696 bytes
Protection:     AACS
BD-Java:        No
BDInfo:         0.5.2
PLAYLIST REPORT:
Name:                   00001.MPLS
Size:                   29 226 835 968 bytes
Length:                 1:42:54 (h:m:s)
Total Bitrate:          37,87 Mbps
Description:
VIDEO:
Codec                   Bitrate             Description
-----                   -------             -----------
MPEG-4 AVC Video        26996 kbps          1080p / 24 fps / 16:9 / High Profile 4.1
AUDIO:
Codec                           Language        Bitrate         Description
-----                           --------        -------         -----------
DTS-HD Master Audio             German          5127 kbps       7.1 / 48 kHz / 5127 kbps / 24-bit (DTS Core: 5.1-ES / 48 kHz / 1509 kbps / 24-bit)
DTS-HD Master Audio             Russian         3597 kbps       5.1 / 48 kHz / 3597 kbps / 24-bit (DTS Core: 5.1 / 48 kHz / 1509 kbps / 24-bit)
SUBTITLES:
Codec                           Language        Bitrate         Description
-----                           --------        -------         -----------
Presentation Graphics           German          39,046 kbps
Presentation Graphics           German          0,093 kbps
FILES:
Name            Time In         Length          Size            Total Bitrate
----            -------         ------          ----            -------------
00002.M2TS      0:00:00.000     1:42:54.375     29 226 835 968  37 869
CHAPTERS:
Number          Time In         Length          Avg Video Rate  Max 1-Sec Rate  Max 1-Sec Time  Max 5-Sec Rate  Max 5-Sec Time  Max 10Sec Rate  Max 10Sec Time  Avg Frame Size  Max Frame Size  Max Frame Time
------          -------         ------          --------------  --------------  --------------  --------------  --------------  --------------  --------------  --------------  --------------  --------------
1               0:00:00.000     0:13:32.833     22 871 kbps     38 711 kbps     00:04:57.875    33 775 kbps     00:04:53.875    32 933 kbps     00:01:26.375    119 111 bytes   364 891 bytes   00:01:58.125
2               0:13:32.833     0:17:18.791     28 507 kbps     34 905 kbps     00:27:39.791    33 187 kbps     00:27:33.625    33 026 kbps     00:17:58.916    148 475 bytes   435 644 bytes   00:24:11.333
3               0:30:51.625     0:12:45.375     29 131 kbps     35 006 kbps     00:43:19.333    33 258 kbps     00:43:16.208    33 010 kbps     00:34:29.625    151 722 bytes   455 075 bytes   00:43:20.375
4               0:43:37.000     0:22:40.208     26 526 kbps     35 250 kbps     00:53:05.708    33 234 kbps     00:53:06.416    33 038 kbps     00:44:53.291    138 157 bytes   471 098 bytes   00:45:11.125
5               1:06:17.208     0:28:58.416     26 399 kbps     35 180 kbps     01:06:18.083    33 248 kbps     01:06:47.625    33 034 kbps     01:06:41.625    137 496 bytes   481 574 bytes   01:06:18.125
6               1:35:15.625     0:07:38.750     30 980 kbps     35 363 kbps     01:36:18.666    33 201 kbps     01:39:12.291    32 936 kbps     01:39:07.500    161 371 bytes   489 655 bytes   01:40:53.708
STREAM DIAGNOSTICS:
File            PID             Type            Codec           Language                Seconds                 Bitrate                 Bytes           Packets
----            ---             ----            -----           --------                --------------          --------------          -------------   -----
00002.M2TS      4113 (0x1011)   0x1B            AVC                                     6174,208                26 997                  20 835 647 928  113 323 595
00002.M2TS      4352 (0x1100)   0x86            DTS-HD MA       deu (German)            6174,208                5 127                   3 956 955 120   22 469 482
00002.M2TS      4353 (0x1101)   0x86            DTS-HD MA       rus (Russian)           6174,208                3 597                   2 776 088 700   16 050 337
00002.M2TS      4608 (0x1200)   0x90            PGS             deu (German)            6174,208                39                      30 135 393      172 406
00002.M2TS      4609 (0x1201)   0x90            PGS             deu (German)            6174,208                0                       72 162          407
QUICK SUMMARY:
Disc Title: SUN_2_CITADEL_BD_EUR
Disc Size: 47 134 904 696 bytes
Protection: AACS
BD-Java: No
Playlist: 00001.MPLS
Size: 29 226 835 968 bytes
Length: 1:42:54
Total Bitrate: 37,87 Mbps
Video: MPEG-4 AVC Video / 26996 kbps / 1080p / 24 fps / 16:9 / High Profile 4.1
Audio: German / DTS-HD Master Audio / 7.1 / 48 kHz / 5127 kbps / 24-bit (DTS Core: 5.1-ES / 48 kHz / 1509 kbps / 24-bit)
Audio: Russian / DTS-HD Master Audio / 5.1 / 48 kHz / 3597 kbps / 24-bit (DTS Core: 5.1 / 48 kHz / 1509 kbps / 24-bit)
Subtitle: German / 39,046 kbps
Subtitle: German / 0,093 kbps
********************
PLAYLIST: 00019.MPLS
********************
Total   Video
Title                                                           Codec   Length  Movie Size      Disc Size       Bitrate Bitrate Main Audio Track                          Secondary Audio Track
-----                                                           ------  ------- --------------  --------------  ------- ------- ------------------                        ---------------------
00019.MPLS                                                      AVC     0:53:59 15 735 748 608  47 134 904 696  38,86   28,00   DTS-HD Master 7.1 5110Kbps (48kHz/24-bit)
DISC INFO:
Disc Title:     SUN_2_CITADEL_BD_EUR
Disc Size:      47 134 904 696 bytes
Protection:     AACS
BD-Java:        No
BDInfo:         0.5.2
PLAYLIST REPORT:
Name:                   00019.MPLS
Size:                   15 735 748 608 bytes
Length:                 0:53:59 (h:m:s)
Total Bitrate:          38,86 Mbps
Description:
VIDEO:
Codec                   Bitrate             Description
-----                   -------             -----------
MPEG-4 AVC Video        27997 kbps          1080p / 24 fps / 16:9 / High Profile 4.1
AUDIO:
Codec                           Language        Bitrate         Description
-----                           --------        -------         -----------
DTS-HD Master Audio             German          5110 kbps       7.1 / 48 kHz / 5110 kbps / 24-bit (DTS Core: 5.1-ES / 48 kHz / 1509 kbps / 24-bit)
DTS-HD Master Audio             Russian         3574 kbps       5.1 / 48 kHz / 3574 kbps / 24-bit (DTS Core: 5.1 / 48 kHz / 1509 kbps / 24-bit)
SUBTITLES:
Codec                           Language        Bitrate         Description
-----                           --------        -------         -----------
Presentation Graphics           German          25,036 kbps
Presentation Graphics           German          0,416 kbps
FILES:
Name            Time In         Length          Size            Total Bitrate
----            -------         ------          ----            -------------
00022.M2TS      0:00:00.000     0:53:59.833     15 735 748 608  38 856
CHAPTERS:
Number          Time In         Length          Avg Video Rate  Max 1-Sec Rate  Max 1-Sec Time  Max 5-Sec Rate  Max 5-Sec Time  Max 10Sec Rate  Max 10Sec Time  Avg Frame Size  Max Frame Size  Max Frame Time
------          -------         ------          --------------  --------------  --------------  --------------  --------------  --------------  --------------  --------------  --------------  --------------
1               0:00:00.000     0:13:32.625     27 681 kbps     35 436 kbps     00:00:22.166    33 239 kbps     00:01:11.416    33 050 kbps     00:05:37.875    144 163 bytes   421 647 bytes   00:05:42.625
2               0:13:32.625     0:04:04.416     22 834 kbps     34 876 kbps     00:15:47.625    32 756 kbps     00:15:46.333    29 951 kbps     00:15:41.625    118 928 bytes   316 758 bytes   00:15:48.333
3               0:17:37.041     0:05:14.583     23 513 kbps     34 498 kbps     00:21:14.666    33 033 kbps     00:22:46.583    32 883 kbps     00:21:46.666    122 463 bytes   335 001 bytes   00:21:22.166
4               0:22:51.625     0:07:39.625     29 230 kbps     35 315 kbps     00:23:48.500    33 162 kbps     00:30:21.833    32 968 kbps     00:23:05.458    152 238 bytes   359 357 bytes   00:23:16.458
5               0:30:31.250     0:13:36.000     29 124 kbps     36 394 kbps     00:39:06.916    33 261 kbps     00:42:53.333    33 004 kbps     00:39:26.500    151 688 bytes   490 987 bytes   00:37:57.833
6               0:44:07.250     0:05:12.791     31 231 kbps     35 590 kbps     00:46:31.791    33 221 kbps     00:46:54.500    32 997 kbps     00:46:49.500    162 662 bytes   509 406 bytes   00:44:07.416
7               0:49:20.041     0:04:39.791     29 541 kbps     35 339 kbps     00:50:07.125    33 143 kbps     00:51:00.500    33 076 kbps     00:49:58.125    153 881 bytes   499 047 bytes   00:50:08.166
STREAM DIAGNOSTICS:
File            PID             Type            Codec           Language                Seconds                 Bitrate                 Bytes           Packets
----            ---             ----            -----           --------                --------------          --------------          -------------   -----
00022.M2TS      4113 (0x1011)   0x1B            AVC                                     3239,667                27 998                  11 338 222 663  61 666 062
00022.M2TS      4352 (0x1100)   0x86            DTS-HD MA       deu (German)            3239,667                5 111                   2 069 562 016   11 751 344
00022.M2TS      4353 (0x1101)   0x86            DTS-HD MA       rus (Russian)           3239,667                3 574                   1 447 507 840   8 371 879
00022.M2TS      4608 (0x1200)   0x90            PGS             deu (German)            3239,667                25                      10 139 028      58 232
00022.M2TS      4609 (0x1201)   0x90            PGS             deu (German)            3239,667                0                       168 463         974
QUICK SUMMARY:
Disc Title: SUN_2_CITADEL_BD_EUR
Disc Size: 47 134 904 696 bytes
Protection: AACS
BD-Java: No
Playlist: 00019.MPLS
Size: 15 735 748 608 bytes
Length: 0:53:59
Total Bitrate: 38,86 Mbps
Video: MPEG-4 AVC Video / 27997 kbps / 1080p / 24 fps / 16:9 / High Profile 4.1
Audio: German / DTS-HD Master Audio / 7.1 / 48 kHz / 5110 kbps / 24-bit (DTS Core: 5.1-ES / 48 kHz / 1509 kbps / 24-bit)
Audio: Russian / DTS-HD Master Audio / 5.1 / 48 kHz / 3574 kbps / 24-bit (DTS Core: 5.1 / 48 kHz / 1509 kbps / 24-bit)
Subtitle: German / 25,036 kbps
Subtitle: German / 0,416 kbps
********************
PLAYLIST: 00011.MPLS
********************
Total   Video
Title                                                           Codec   Length  Movie Size      Disc Size       Bitrate Bitrate Main Audio Track                          Secondary Audio Track
-----                                                           ------  ------- --------------  --------------  ------- ------- ------------------                        ---------------------
00011.MPLS                                                      AVC     0:02:40 419 352 576     47 134 904 696  20,89   18,00   DTS-HD Master 2.0 1808Kbps (48kHz/24-bit)
DISC INFO:
Disc Title:     SUN_2_CITADEL_BD_EUR
Disc Size:      47 134 904 696 bytes
Protection:     AACS
BD-Java:        No
BDInfo:         0.5.2
PLAYLIST REPORT:
Name:                   00011.MPLS
Size:                   419 352 576 bytes
Length:                 0:02:40 (h:m:s)
Total Bitrate:          20,89 Mbps
Description:
VIDEO:
Codec                   Bitrate             Description
-----                   -------             -----------
MPEG-4 AVC Video        17999 kbps          1080p / 24 fps / 16:9 / High Profile 4.1
AUDIO:
Codec                           Language        Bitrate         Description
-----                           --------        -------         -----------
DTS-HD Master Audio             German          1808 kbps       2.0 / 48 kHz / 1808 kbps / 24-bit (DTS Core: 2.0 / 48 kHz / 768 kbps / 24-bit)
FILES:
Name            Time In         Length          Size            Total Bitrate
----            -------         ------          ----            -------------
00011.M2TS      0:00:00.000     0:02:40.625     419 352 576     20 886
CHAPTERS:
Number          Time In         Length          Avg Video Rate  Max 1-Sec Rate  Max 1-Sec Time  Max 5-Sec Rate  Max 5-Sec Time  Max 10Sec Rate  Max 10Sec Time  Avg Frame Size  Max Frame Size  Max Frame Time
------          -------         ------          --------------  --------------  --------------  --------------  --------------  --------------  --------------  --------------  --------------  --------------
1               0:00:00.000     0:02:40.625     17 999 kbps     34 006 kbps     00:01:10.666    30 037 kbps     00:01:10.666    26 456 kbps     00:01:10.666    93 747 bytes    368 064 bytes   00:01:15.250
STREAM DIAGNOSTICS:
File            PID             Type            Codec           Language                Seconds                 Bitrate                 Bytes           Packets
----            ---             ----            -----           --------                --------------          --------------          -------------   -----
00011.M2TS      4113 (0x1011)   0x1B            AVC                                     160,458                 18 018                  361 393 495     1 966 345
00011.M2TS      4352 (0x1100)   0x86            DTS-HD MA       deu (German)            160,458                 1 810                   36 295 800      212 372
QUICK SUMMARY:
Disc Title: SUN_2_CITADEL_BD_EUR
Disc Size: 47 134 904 696 bytes
Protection: AACS
BD-Java: No
Playlist: 00011.MPLS
Size: 419 352 576 bytes
Length: 0:02:40
Total Bitrate: 20,89 Mbps
Video: MPEG-4 AVC Video / 17999 kbps / 1080p / 24 fps / 16:9 / High Profile 4.1
Audio: German / DTS-HD Master Audio / 2.0 / 48 kHz / 1808 kbps / 24-bit (DTS Core: 2.0 / 48 kHz / 768 kbps / 24-bit)
********************
PLAYLIST: 00014.MPLS
********************
Total   Video
Title                                                           Codec   Length  Movie Size      Disc Size       Bitrate Bitrate Main Audio Track                          Secondary Audio Track
-----                                                           ------  ------- --------------  --------------  ------- ------- ------------------                        ---------------------
00014.MPLS                                                      AVC     0:02:10 384 811 008     47 134 904 696  23,55   17,99   DTS-HD Master 5.1 4277Kbps (48kHz/24-bit)
DISC INFO:
Disc Title:     SUN_2_CITADEL_BD_EUR
Disc Size:      47 134 904 696 bytes
Protection:     AACS
BD-Java:        No
BDInfo:         0.5.2
PLAYLIST REPORT:
Name:                   00014.MPLS
Size:                   384 811 008 bytes
Length:                 0:02:10 (h:m:s)
Total Bitrate:          23,55 Mbps
Description:
VIDEO:
Codec                   Bitrate             Description
-----                   -------             -----------
MPEG-4 AVC Video        17989 kbps          1080p / 23,976 fps / 16:9 / High Profile 4.1
AUDIO:
Codec                           Language        Bitrate         Description
-----                           --------        -------         -----------
DTS-HD Master Audio             German          4277 kbps       5.1 / 48 kHz / 4277 kbps / 24-bit (DTS Core: 5.1 / 48 kHz / 1509 kbps / 24-bit)
FILES:
Name            Time In         Length          Size            Total Bitrate
----            -------         ------          ----            -------------
00014.M2TS      0:00:00.000     0:02:10.713     384 811 008     23 551
CHAPTERS:
Number          Time In         Length          Avg Video Rate  Max 1-Sec Rate  Max 1-Sec Time  Max 5-Sec Rate  Max 5-Sec Time  Max 10Sec Rate  Max 10Sec Time  Avg Frame Size  Max Frame Size  Max Frame Time
------          -------         ------          --------------  --------------  --------------  --------------  --------------  --------------  --------------  --------------  --------------  --------------
1               0:00:00.000     0:02:10.713     17 989 kbps     35 759 kbps     00:01:22.415    29 625 kbps     00:00:04.295    27 314 kbps     00:00:04.295    93 786 bytes    620 083 bytes   00:00:01.876
STREAM DIAGNOSTICS:
File            PID             Type            Codec           Language                Seconds                 Bitrate                 Bytes           Packets
----            ---             ----            -----           --------                --------------          --------------          -------------   -----
00014.M2TS      4113 (0x1011)   0x1B            AVC                                     130,547                 18 012                  293 926 658     1 599 226
00014.M2TS      4352 (0x1100)   0x86            DTS-HD MA       deu (German)            130,547                 4 283                   69 885 120      400 570
QUICK SUMMARY:
Disc Title: SUN_2_CITADEL_BD_EUR
Disc Size: 47 134 904 696 bytes
Protection: AACS
BD-Java: No
Playlist: 00014.MPLS
Size: 384 811 008 bytes
Length: 0:02:10
Total Bitrate: 23,55 Mbps
Video: MPEG-4 AVC Video / 17989 kbps / 1080p / 23,976 fps / 16:9 / High Profile 4.1
Audio: German / DTS-HD Master Audio / 5.1 / 48 kHz / 4277 kbps / 24-bit (DTS Core: 5.1 / 48 kHz / 1509 kbps / 24-bit)
********************
PLAYLIST: 00015.MPLS
********************
Total   Video
Title                                                           Codec   Length  Movie Size      Disc Size       Bitrate Bitrate Main Audio Track                          Secondary Audio Track
-----                                                           ------  ------- --------------  --------------  ------- ------- ------------------                        ---------------------
00015.MPLS                                                      AVC     0:02:02 340 850 688     47 134 904 696  22,34   21,11   DD AC3 2.0 192Kbps
DISC INFO:
Disc Title:     SUN_2_CITADEL_BD_EUR
Disc Size:      47 134 904 696 bytes
Protection:     AACS
BD-Java:        No
BDInfo:         0.5.2
PLAYLIST REPORT:
Name:                   00015.MPLS
Size:                   340 850 688 bytes
Length:                 0:02:02 (h:m:s)
Total Bitrate:          22,34 Mbps
Description:
VIDEO:
Codec                   Bitrate             Description
-----                   -------             -----------
MPEG-4 AVC Video        21113 kbps          1080p / 23,976 fps / 16:9 / High Profile 4.1
AUDIO:
Codec                           Language        Bitrate         Description
-----                           --------        -------         -----------
Dolby Digital Audio             German          192 kbps        2.0 / 48 kHz / 192 kbps
FILES:
Name            Time In         Length          Size            Total Bitrate
----            -------         ------          ----            -------------
00015.M2TS      0:00:00.000     0:02:02.038     340 850 688     22 344
CHAPTERS:
Number          Time In         Length          Avg Video Rate  Max 1-Sec Rate  Max 1-Sec Time  Max 5-Sec Rate  Max 5-Sec Time  Max 10Sec Rate  Max 10Sec Time  Avg Frame Size  Max Frame Size  Max Frame Time
------          -------         ------          --------------  --------------  --------------  --------------  --------------  --------------  --------------  --------------  --------------  --------------
1               0:00:00.000     0:02:02.038     21 113 kbps     39 472 kbps     00:00:24.816    29 311 kbps     00:00:24.607    28 323 kbps     00:00:19.894    110 074 bytes   705 615 bytes   00:01:26.753
STREAM DIAGNOSTICS:
File            PID             Type            Codec           Language                Seconds                 Bitrate                 Bytes           Packets
----            ---             ----            -----           --------                --------------          --------------          -------------   -----
00015.M2TS      4113 (0x1011)   0x1B            AVC                                     121,955                 21 127                  322 075 727     1 752 074
00015.M2TS      4352 (0x1100)   0x81            AC3             deu (German)            121,955                 192                     2 929 152       19 070
QUICK SUMMARY:
Disc Title: SUN_2_CITADEL_BD_EUR
Disc Size: 47 134 904 696 bytes
Protection: AACS
BD-Java: No
Playlist: 00015.MPLS
Size: 340 850 688 bytes
Length: 0:02:02
Total Bitrate: 22,34 Mbps
Video: MPEG-4 AVC Video / 21113 kbps / 1080p / 23,976 fps / 16:9 / High Profile 4.1
Audio: German / Dolby Digital Audio / 2.0 / 48 kHz / 192 kbps
********************
PLAYLIST: 00017.MPLS
********************
Total   Video
Title                                                           Codec   Length  Movie Size      Disc Size       Bitrate Bitrate Main Audio Track                          Secondary Audio Track
-----                                                           ------  ------- --------------  --------------  ------- ------- ------------------                        ---------------------
00017.MPLS                                                      AVC     0:02:01 332 673 024     47 134 904 696  21,92   20,71   DD AC3 2.0 192Kbps
DISC INFO:
Disc Title:     SUN_2_CITADEL_BD_EUR
Disc Size:      47 134 904 696 bytes
Protection:     AACS
BD-Java:        No
BDInfo:         0.5.2
PLAYLIST REPORT:
Name:                   00017.MPLS
Size:                   332 673 024 bytes
Length:                 0:02:01 (h:m:s)
Total Bitrate:          21,92 Mbps
Description:
VIDEO:
Codec                   Bitrate             Description
-----                   -------             -----------
MPEG-4 AVC Video        20706 kbps          1080p / 24 fps / 16:9 / High Profile 4.1
AUDIO:
Codec                           Language        Bitrate         Description
-----                           --------        -------         -----------
Dolby Digital Audio             German          192 kbps        2.0 / 48 kHz / 192 kbps
FILES:
Name            Time In         Length          Size            Total Bitrate
----            -------         ------          ----            -------------
00017.M2TS      0:00:00.000     0:02:01.416     332 673 024     21 919
CHAPTERS:
Number          Time In         Length          Avg Video Rate  Max 1-Sec Rate  Max 1-Sec Time  Max 5-Sec Rate  Max 5-Sec Time  Max 10Sec Rate  Max 10Sec Time  Avg Frame Size  Max Frame Size  Max Frame Time
------          -------         ------          --------------  --------------  --------------  --------------  --------------  --------------  --------------  --------------  --------------  --------------
1               0:00:00.000     0:02:01.416     20 706 kbps     52 678 kbps     00:00:01.958    31 516 kbps     00:00:53.416    26 819 kbps     00:00:48.875    107 845 bytes   737 763 bytes   00:00:02.208
STREAM DIAGNOSTICS:
File            PID             Type            Codec           Language                Seconds                 Bitrate                 Bytes           Packets
----            ---             ----            -----           --------                --------------          --------------          -------------   -----
00017.M2TS      4113 (0x1011)   0x1B            AVC                                     121,292                 20 728                  314 260 786     1 709 601
00017.M2TS      4352 (0x1100)   0x81            AC3             deu (German)            121,292                 192                     2 914 560       18 975
QUICK SUMMARY:
Disc Title: SUN_2_CITADEL_BD_EUR
Disc Size: 47 134 904 696 bytes
Protection: AACS
BD-Java: No
Playlist: 00017.MPLS
Size: 332 673 024 bytes
Length: 0:02:01
Total Bitrate: 21,92 Mbps
Video: MPEG-4 AVC Video / 20706 kbps / 1080p / 24 fps / 16:9 / High Profile 4.1
Audio: German / Dolby Digital Audio / 2.0 / 48 kHz / 192 kbps
********************
PLAYLIST: 00013.MPLS
********************
Total   Video
Title                                                           Codec   Length  Movie Size      Disc Size       Bitrate Bitrate Main Audio Track                          Secondary Audio Track
-----                                                           ------  ------- --------------  --------------  ------- ------- ------------------                        ---------------------
00013.MPLS                                                      AVC     0:01:49 326 227 968     47 134 904 696  23,74   21,99   DD AC3 5.1 640Kbps
DISC INFO:
Disc Title:     SUN_2_CITADEL_BD_EUR
Disc Size:      47 134 904 696 bytes
Protection:     AACS
BD-Java:        No
BDInfo:         0.5.2
PLAYLIST REPORT:
Name:                   00013.MPLS
Size:                   326 227 968 bytes
Length:                 0:01:49 (h:m:s)
Total Bitrate:          23,74 Mbps
Description:
VIDEO:
Codec                   Bitrate             Description
-----                   -------             -----------
MPEG-4 AVC Video        21994 kbps          1080p / 24 fps / 16:9 / High Profile 4.1
AUDIO:
Codec                           Language        Bitrate         Description
-----                           --------        -------         -----------
Dolby Digital Audio             English         640 kbps        5.1 / 48 kHz / 640 kbps
FILES:
Name            Time In         Length          Size            Total Bitrate
----            -------         ------          ----            -------------
00013.M2TS      0:00:00.000     0:01:49.916     326 227 968     23 744
CHAPTERS:
Number          Time In         Length          Avg Video Rate  Max 1-Sec Rate  Max 1-Sec Time  Max 5-Sec Rate  Max 5-Sec Time  Max 10Sec Rate  Max 10Sec Time  Avg Frame Size  Max Frame Size  Max Frame Time
------          -------         ------          --------------  --------------  --------------  --------------  --------------  --------------  --------------  --------------  --------------  --------------
1               0:00:00.000     0:01:49.916     21 994 kbps     33 087 kbps     00:01:34.708    28 602 kbps     00:01:32.291    26 878 kbps     00:01:27.250    114 553 bytes   330 210 bytes   00:01:36.958
STREAM DIAGNOSTICS:
File            PID             Type            Codec           Language                Seconds                 Bitrate                 Bytes           Packets
----            ---             ----            -----           --------                --------------          --------------          -------------   -----
00013.M2TS      4113 (0x1011)   0x1B            AVC                                     109,750                 22 028                  302 189 900     1 643 855
00013.M2TS      4352 (0x1100)   0x81            AC3             eng (English)           109,750                 641                     8 793 600       51 525
QUICK SUMMARY:
Disc Title: SUN_2_CITADEL_BD_EUR
Disc Size: 47 134 904 696 bytes
Protection: AACS
BD-Java: No
Playlist: 00013.MPLS
Size: 326 227 968 bytes
Length: 0:01:49
Total Bitrate: 23,74 Mbps
Video: MPEG-4 AVC Video / 21994 kbps / 1080p / 24 fps / 16:9 / High Profile 4.1
Audio: English / Dolby Digital Audio / 5.1 / 48 kHz / 640 kbps
********************
PLAYLIST: 00012.MPLS
********************
Total   Video
Title                                                           Codec   Length  Movie Size      Disc Size       Bitrate Bitrate Main Audio Track                          Secondary Audio Track
-----                                                           ------  ------- --------------  --------------  ------- ------- ------------------                        ---------------------
00012.MPLS                                                      MPEG-2  0:01:45 113 651 712     47 134 904 696  8,66    8,00    DD AC3 2.0 192Kbps
DISC INFO:
Disc Title:     SUN_2_CITADEL_BD_EUR
Disc Size:      47 134 904 696 bytes
Protection:     AACS
BD-Java:        No
BDInfo:         0.5.2
PLAYLIST REPORT:
Name:                   00012.MPLS
Size:                   113 651 712 bytes
Length:                 0:01:45 (h:m:s)
Total Bitrate:          8,66 Mbps
Description:
VIDEO:
Codec                   Bitrate             Description
-----                   -------             -----------
MPEG-2 Video            7997 kbps           576i / 25 fps / 16:9
AUDIO:
Codec                           Language        Bitrate         Description
-----                           --------        -------         -----------
Dolby Digital Audio             German          192 kbps        2.0 / 48 kHz / 192 kbps
FILES:
Name            Time In         Length          Size            Total Bitrate
----            -------         ------          ----            -------------
00012.M2TS      0:00:00.000     0:01:45.000     113 651 712     8 659
CHAPTERS:
Number          Time In         Length          Avg Video Rate  Max 1-Sec Rate  Max 1-Sec Time  Max 5-Sec Rate  Max 5-Sec Time  Max 10Sec Rate  Max 10Sec Time  Avg Frame Size  Max Frame Size  Max Frame Time
------          -------         ------          --------------  --------------  --------------  --------------  --------------  --------------  --------------  --------------  --------------  --------------
1               0:00:00.000     0:01:45.000     7 997 kbps      9 250 kbps      00:00:30.680    8 223 kbps      00:01:12.880    8 100 kbps      00:00:03.160    39 984 bytes    109 865 bytes   00:00:13.440
STREAM DIAGNOSTICS:
File            PID             Type            Codec           Language                Seconds                 Bitrate                 Bytes           Packets
----            ---             ----            -----           --------                --------------          --------------          -------------   -----
00012.M2TS      4113 (0x1011)   0x02            MPEG-2                                  104,880                 8 006                   104 956 996     571 970
00012.M2TS      4352 (0x1100)   0x81            AC3             deu (German)            104,880                 192                     2 520 576       16 410
QUICK SUMMARY:
Disc Title: SUN_2_CITADEL_BD_EUR
Disc Size: 47 134 904 696 bytes
Protection: AACS
BD-Java: No
Playlist: 00012.MPLS
Size: 113 651 712 bytes
Length: 0:01:45
Total Bitrate: 8,66 Mbps
Video: MPEG-2 Video / 7997 kbps / 576i / 25 fps / 16:9
Audio: German / Dolby Digital Audio / 2.0 / 48 kHz / 192 kbps
********************
PLAYLIST: 00003.MPLS
********************
Total   Video
Title                                                           Codec   Length  Movie Size      Disc Size       Bitrate Bitrate Main Audio Track                          Secondary Audio Track
-----                                                           ------  ------- --------------  --------------  ------- ------- ------------------                        ---------------------
00003.MPLS                                                      AVC     0:00:50 201 609 216     47 134 904 696  31,83   29,98   DD AC3 2.0 192Kbps
DISC INFO:
Disc Title:     SUN_2_CITADEL_BD_EUR
Disc Size:      47 134 904 696 bytes
Protection:     AACS
BD-Java:        No
BDInfo:         0.5.2
PLAYLIST REPORT:
Name:                   00003.MPLS
Size:                   201 609 216 bytes
Length:                 0:00:50 (h:m:s)
Total Bitrate:          31,83 Mbps
Description:
VIDEO:
Codec                   Bitrate             Description
-----                   -------             -----------
MPEG-4 AVC Video        29976 kbps          1080p / 24 fps / 16:9 / High Profile 4.1
AUDIO:
Codec                           Language        Bitrate         Description
-----                           --------        -------         -----------
Dolby Digital Audio             English         192 kbps        2.0 / 48 kHz / 192 kbps / Dolby Surround
Dolby Digital Audio             English         192 kbps        2.0 / 48 kHz / 192 kbps / Dolby Surround
SUBTITLES:
Codec                           Language        Bitrate         Description
-----                           --------        -------         -----------
Presentation Graphics           English         0,011 kbps
Presentation Graphics           English         0,011 kbps
FILES:
Name            Time In         Length          Size            Total Bitrate
----            -------         ------          ----            -------------
00003.M2TS      0:00:00.000     0:00:50.666     201 609 216     31 833
CHAPTERS:
Number          Time In         Length          Avg Video Rate  Max 1-Sec Rate  Max 1-Sec Time  Max 5-Sec Rate  Max 5-Sec Time  Max 10Sec Rate  Max 10Sec Time  Avg Frame Size  Max Frame Size  Max Frame Time
------          -------         ------          --------------  --------------  --------------  --------------  --------------  --------------  --------------  --------------  --------------  --------------
1               0:00:00.000     0:00:50.666     29 976 kbps     40 348 kbps     00:00:29.458    34 576 kbps     00:00:13.583    32 171 kbps     00:00:08.458    156 124 bytes   504 244 bytes   00:00:29.500
STREAM DIAGNOSTICS:
File            PID             Type            Codec           Language                Seconds                 Bitrate                 Bytes           Packets
----            ---             ----            -----           --------                --------------          --------------          -------------   -----
00003.M2TS      4113 (0x1011)   0x1B            AVC                                     50,500                  30 075                  189 846 484     1 032 491
00003.M2TS      4352 (0x1100)   0x81            AC3             eng (English)           50,500                  193                     1 216 512       7 920
00003.M2TS      4353 (0x1101)   0x81            AC3             eng (English)           50,500                  193                     1 216 512       7 920
00003.M2TS      4608 (0x1200)   0x90            PGS             eng (English)           50,500                  0                       70              7
00003.M2TS      4609 (0x1201)   0x90            PGS             eng (English)           50,500                  0                       70              7
QUICK SUMMARY:
Disc Title: SUN_2_CITADEL_BD_EUR
Disc Size: 47 134 904 696 bytes
Protection: AACS
BD-Java: No
Playlist: 00003.MPLS
Size: 201 609 216 bytes
Length: 0:00:50
Total Bitrate: 31,83 Mbps
Video: MPEG-4 AVC Video / 29976 kbps / 1080p / 24 fps / 16:9 / High Profile 4.1
Audio: English / Dolby Digital Audio / 2.0 / 48 kHz / 192 kbps / Dolby Surround
Audio: English / Dolby Digital Audio / 2.0 / 48 kHz / 192 kbps / Dolby Surround
Subtitle: English / 0,011 kbps
Subtitle: English / 0,011 kbps
********************
PLAYLIST: 00005.MPLS
********************
Total   Video
Title                                                           Codec   Length  Movie Size      Disc Size       Bitrate Bitrate Main Audio Track                          Secondary Audio Track
-----                                                           ------  ------- --------------  --------------  ------- ------- ------------------                        ---------------------
00005.MPLS                                                      AVC     0:00:45 47 566 848      47 134 904 696  8,45    6,96    DTS-HD Master 2.0 904Kbps (48kHz/16-bit)
DISC INFO:
Disc Title:     SUN_2_CITADEL_BD_EUR
Disc Size:      47 134 904 696 bytes
Protection:     AACS
BD-Java:        No
BDInfo:         0.5.2
PLAYLIST REPORT:
Name:                   00005.MPLS
Size:                   47 566 848 bytes
Length:                 0:00:45 (h:m:s)
Total Bitrate:          8,45 Mbps
Description:
VIDEO:
Codec                   Bitrate             Description
-----                   -------             -----------
MPEG-4 AVC Video        6957 kbps           1080i / 25 fps / 16:9 / High Profile 4.1
AUDIO:
Codec                           Language        Bitrate         Description
-----                           --------        -------         -----------
DTS-HD Master Audio             German          904 kbps        2.0 / 48 kHz / 904 kbps / 16-bit (DTS Core: 2.0 / 48 kHz / 768 kbps / 16-bit)
FILES:
Name            Time In         Length          Size            Total Bitrate
----            -------         ------          ----            -------------
00005.M2TS      0:00:00.000     0:00:45.040     47 566 848      8 449
CHAPTERS:
Number          Time In         Length          Avg Video Rate  Max 1-Sec Rate  Max 1-Sec Time  Max 5-Sec Rate  Max 5-Sec Time  Max 10Sec Rate  Max 10Sec Time  Avg Frame Size  Max Frame Size  Max Frame Time
------          -------         ------          --------------  --------------  --------------  --------------  --------------  --------------  --------------  --------------  --------------  --------------
1               0:00:00.000     0:00:45.040     6 957 kbps      24 760 kbps     00:00:07.240    23 603 kbps     00:00:05.479    21 171 kbps     00:00:01.280    34 786 bytes    196 906 bytes   00:00:31.000
STREAM DIAGNOSTICS:
File            PID             Type            Codec           Language                Seconds                 Bitrate                 Bytes           Packets
----            ---             ----            -----           --------                --------------          --------------          -------------   -----
00005.M2TS      4113 (0x1011)   0x1B            AVC                                     44,960                  6 970                   39 169 410      214 239
00005.M2TS      4352 (0x1100)   0x86            DTS-HD MA       deu (German)            44,960                  906                     5 090 764       31 954
QUICK SUMMARY:
Disc Title: SUN_2_CITADEL_BD_EUR
Disc Size: 47 134 904 696 bytes
Protection: AACS
BD-Java: No
Playlist: 00005.MPLS
Size: 47 566 848 bytes
Length: 0:00:45
Total Bitrate: 8,45 Mbps
Video: MPEG-4 AVC Video / 6957 kbps / 1080i / 25 fps / 16:9 / High Profile 4.1
Audio: German / DTS-HD Master Audio / 2.0 / 48 kHz / 904 kbps / 16-bit (DTS Core: 2.0 / 48 kHz / 768 kbps / 16-bit)
********************
PLAYLIST: 00006.MPLS
********************
Total   Video
Title                                                           Codec   Length  Movie Size      Disc Size       Bitrate Bitrate Main Audio Track                          Secondary Audio Track
-----                                                           ------  ------- --------------  --------------  ------- ------- ------------------                        ---------------------
00006.MPLS                                                      AVC     0:00:36 42 725 184      47 134 904 696  9,47    7,93    DTS-HD Master 2.0 915Kbps (48kHz/16-bit)
DISC INFO:
Disc Title:     SUN_2_CITADEL_BD_EUR
Disc Size:      47 134 904 696 bytes
Protection:     AACS
BD-Java:        No
BDInfo:         0.5.2
PLAYLIST REPORT:
Name:                   00006.MPLS
Size:                   42 725 184 bytes
Length:                 0:00:36 (h:m:s)
Total Bitrate:          9,47 Mbps
Description:
VIDEO:
Codec                   Bitrate             Description
-----                   -------             -----------
MPEG-4 AVC Video        7925 kbps           1080i / 25 fps / 16:9 / High Profile 4.1
AUDIO:
Codec                           Language        Bitrate         Description
-----                           --------        -------         -----------
DTS-HD Master Audio             German          915 kbps        2.0 / 48 kHz / 915 kbps / 16-bit (DTS Core: 2.0 / 48 kHz / 768 kbps / 16-bit)
FILES:
Name            Time In         Length          Size            Total Bitrate
----            -------         ------          ----            -------------
00005.M2TS      0:00:00.000     0:00:36.080     42 725 184      9 463
CHAPTERS:
Number          Time In         Length          Avg Video Rate  Max 1-Sec Rate  Max 1-Sec Time  Max 5-Sec Rate  Max 5-Sec Time  Max 10Sec Rate  Max 10Sec Time  Avg Frame Size  Max Frame Size  Max Frame Time
------          -------         ------          --------------  --------------  --------------  --------------  --------------  --------------  --------------  --------------  --------------  --------------
1               0:00:00.000     0:00:18.720     13 399 kbps     24 760 kbps     00:00:07.240    23 603 kbps     00:00:05.479    21 171 kbps     00:00:01.280    66 853 bytes    177 779 bytes   00:00:07.520
2               0:00:18.720     0:00:07.280     1 337 kbps      2 714 kbps      00:00:19.160    1 131 kbps      00:00:18.719    0 kbps          00:00:00.000    6 684 bytes     52 336 bytes    00:00:21.000
3               0:00:26.000     0:00:10.079     2 550 kbps      7 993 kbps      00:00:26.000    3 003 kbps      00:00:25.999    2 558 kbps      00:00:26.000    12 749 bytes    196 906 bytes   00:00:31.000
STREAM DIAGNOSTICS:
File            PID             Type            Codec           Language                Seconds                 Bitrate                 Bytes           Packets
----            ---             ----            -----           --------                --------------          --------------          -------------   -----
00005.M2TS      4113 (0x1011)   0x1B            AVC                                     44,960                  6 970                   39 169 410      214 239
00005.M2TS      4352 (0x1100)   0x86            DTS-HD MA       deu (German)            44,960                  906                     5 090 764       31 954
QUICK SUMMARY:
Disc Title: SUN_2_CITADEL_BD_EUR
Disc Size: 47 134 904 696 bytes
Protection: AACS
BD-Java: No
Playlist: 00006.MPLS
Size: 42 725 184 bytes
Length: 0:00:36
Total Bitrate: 9,47 Mbps
Video: MPEG-4 AVC Video / 7925 kbps / 1080i / 25 fps / 16:9 / High Profile 4.1
Audio: German / DTS-HD Master Audio / 2.0 / 48 kHz / 915 kbps / 16-bit (DTS Core: 2.0 / 48 kHz / 768 kbps / 16-bit)
[Профиль] [ЛС]
Показать сообщения:    

Текущее время: Сегодня 18:28

Часовой пояс: GMT



Вы не можете начинать темы
Вы не можете отвечать на сообщения
Вы не можете редактировать свои сообщения
Вы не можете удалять свои сообщения
Вы не можете голосовать в опросах
Вы не можете прикреплять файлы к сообщениям
Вы не можете скачивать файлы