Ускорение / Momentum (2015) BDRip 1080p | GER Transfer | Лицензия

 
Автор Сообщение

достали все ®

Пол:

Стаж: 1 год 8 месяцев

Сообщений: 6515



Награды: 12 (Подробнее)

Mega Seeder 3 (Количество: 1) Mega Seeder 1 (Количество: 1) Top Releaser 2 (Количество: 1)
Торрент-статистика

Создавать темы 18-Авг-2016 03:16

[Цитировать]

Информация о фильме
Название: Ускорение
Оригинальное название: Momentum
Год выхода: 2015
Жанр: Боевик, триллер
Режиссер: Стивен С. Кампанелли
В ролях: Ольга Куриленко, Морган Фримен, Джеймс Пьюрфой, Дженна Сарас, Ли-Энн Саммерс, Сабина Палфи, Лиза Леонард, Мэриэн Фризелл, Эбби Уэйим, Карл Танинг, Ли Равив, Дилан Эди, Шелли Николь, Эйдан Уайток, Скот Купер, Грант Робертс, Ричард Лотиан, Колин Мосс, Дэниэл Фокс, Джо Ваз
О фильме:
Алекс, опытная воровка, соглашается совершить свое последнее ограбление... Но все идет не по плану. Теперь ей - красивой, сильной и безжалостной femme fatale - угрожает опасность. И неудачное ограбление - не единственная проблема. Она перешла дорогу секретному международному синдикату, который ищет нечто более ценное, чем бриллианты. С этого момента для Алекс единственный способ спастись - бежать. И как можно быстрее.

Страна: США, ЮАР
Студия: Azari Media, Thaba Media
Продолжительность: 01:36:04
Перевод: Дублированный | Лицензия [Blu-Ray GER Transfer]
Файл
Кодек: MPEG-4
Качество: BDRip 1080
Видео: 1920x804, 15.9 Mbit/s, 23.976 fps
Звук:
Аудио #01: 48 kHz, AC3, 5.1, 640 Kbps | Дублированный | Лицензия [Blu-Ray GER Transfer] |
Аудио #02: 48 kHz, DTS, 5.1, 1536 Kbps | Дублированный | Лицензия [Blu-Ray GER Transfer] |
Аудио #02: 48 kHz, DTS, 5.1, 1510 kbps | Оригинал |
Субтитры: Русские, английские

MI

General
Unique ID : 198148655145994038266602403141329391611 (0x95120AF777FDFCEAAF4C842E662C8FFB)
Complete name : G:VideoMomentum.2015.D.BDRip.1080p.ExKinoRay.mkv
Format : Matroska
Format version : Version 4 / Version 2
File size : 13.2 GiB
Duration : 1 h 36 min
Overall bit rate : 19.6 Mb/s
Movie name : Momentum.2015.D.BDRip.1080p.ExKinoRay
Encoded date : UTC 2016-08-17 21:24:54
Writing application : mkvmerge v8.3.0 ('Over the Horizon') 64bit
Writing library : libebml v1.3.1 + libmatroska v1.4.2
Video
ID : 1
Format : AVC
Format/Info : Advanced Video Codec
Format profile : High@L4.1
Format settings, CABAC : Yes
Format settings, ReFrames : 5 frames
Codec ID : V_MPEG4/ISO/AVC
Duration : 1 h 36 min
Bit rate : 15.9 Mb/s
Width : 1 920 pixels
Height : 804 pixels
Display aspect ratio : 2.40:1
Frame rate mode : Constant
Frame rate : 23.976 (24000/1001) FPS
Color space : YUV
Chroma subsampling : 4:2:0
Bit depth : 8 bits
Scan type : Progressive
Bits/(Pixel*Frame) : 0.430
Stream size : 10.7 GiB (81%)
Writing library : x264 core 142 r2431+42 c69a006 tMod [8-bit@all X86_64]
Encoding settings : cabac=1 / ref=5 / deblock=1:-3:-3 / analyse=0x3:0x133 / me=umh / subme=11 / psy=1 / fade_compensate=0.00 / psy_rd=1.05:0.00 / mixed_ref=1 / me_range=32 / chroma_me=1 / trellis=2 / 8x8dct=1 / cqm=0 / deadzone=21,11 / fast_pskip=1 / chroma_qp_offset=-2 / threads=12 / lookahead_threads=2 / sliced_threads=0 / nr=0 / decimate=0 / interlaced=0 / bluray_compat=0 / constrained_intra=0 / fgo=0 / bframes=8 / b_pyramid=2 / b_adapt=2 / b_bias=0 / direct=3 / weightb=1 / open_gop=0 / weightp=2 / keyint=250 / keyint_min=23 / scenecut=40 / intra_refresh=0 / rc_lookahead=60 / rc=crf / mbtree=0 / crf=16.5000 / qcomp=0.65 / qpmin=0:0:0 / qpmax=69:69:69 / qpstep=4 / vbv_maxrate=62500 / vbv_bufsize=78125 / crf_max=0.0 / nal_hrd=none / filler=0 / ip_ratio=1.24 / pb_ratio=1.18 / aq=1:0.75 / aq-sensitivity=10.00 / aq-factor=1.00:1.00:1.00 / aq2=0 / aq3=0 / zones=0,2482,crf=14/4633,4667,crf=15/17205,17305,crf=15/42590,42811,crf=15/49065,49525,crf=15/74891,74924,crf=15/78841,79087,crf=15/125501,125621,crf=15/126380,126727,crf=15/127166,127839,crf=15/128173,138192,crf=21
Language : English
Default : Yes
Forced : No
Color range : Limited
Matrix coefficients : BT.709
Audio #1
ID : 2
Format : AC-3
Format/Info : Audio Coding 3
Mode extension : CM (complete main)
Format settings, Endianness : Big
Codec ID : A_AC3
Duration : 1 h 35 min
Bit rate mode : Constant
Bit rate : 640 kb/s
Channel(s) : 6 channels
Channel positions : Front: L C R, Side: L R, LFE
Sampling rate : 48.0 kHz
Frame rate : 31.250 FPS (1536 spf)
Compression mode : Lossy
Stream size : 439 MiB (3%)
Title : DUB-AC3 [GER Transfer]
Language : Russian
Default : Yes
Forced : No
Audio #2
ID : 3
Format : DTS
Format/Info : Digital Theater Systems
Mode : 16
Format settings, Endianness : Big
Codec ID : A_DTS
Duration : 1 h 35 min
Bit rate mode : Constant
Bit rate : 1 536 kb/s
Channel(s) : 6 channels
Channel positions : Front: L C R, Side: L R, LFE
Sampling rate : 48.0 kHz
Frame rate : 93.750 FPS (512 spf)
Bit depth : 16 bits
Compression mode : Lossy
Stream size : 1.03 GiB (8%)
Title : DUB-DTS [GER Transfer]
Language : Russian
Default : No
Forced : No
Audio #3
ID : 4
Format : DTS
Format/Info : Digital Theater Systems
Mode : 16
Format settings, Endianness : Big
Codec ID : A_DTS
Duration : 1 h 36 min
Bit rate mode : Constant
Bit rate : 1 510 kb/s
Channel(s) : 6 channels
Channel positions : Front: L C R, Side: L R, LFE
Sampling rate : 48.0 kHz
Frame rate : 93.750 FPS (512 spf)
Bit depth : 24 bits
Compression mode : Lossy
Stream size : 1.01 GiB (8%)
Title : Original
Language : English
Default : No
Forced : No
Text #1
ID : 5
Format : UTF-8
Codec ID : S_TEXT/UTF8
Codec ID/Info : UTF-8 Plain Text
Duration : 1 h 28 min
Bit rate : 77 b/s
Count of elements : 802
Stream size : 50.0 KiB (0%)
Title : Full
Language : Russian
Default : No
Forced : No
Text #2
ID : 6
Format : UTF-8
Codec ID : S_TEXT/UTF8
Codec ID/Info : UTF-8 Plain Text
Duration : 1 h 28 min
Bit rate : 46 b/s
Count of elements : 1201
Stream size : 30.3 KiB (0%)
Title : Full
Language : English
Default : No
Forced : No
Menu
00:00:00.000 : en:00:00:00.000
00:11:59.427 : en:00:11:59.427
00:23:04.425 : en:00:23:04.425
00:33:35.639 : en:00:33:35.639
00:43:34.695 : en:00:43:34.695
00:54:18.964 : en:00:54:18.964
01:02:51.393 : en:01:02:51.393
01:14:14.867 : en:01:14:14.867
01:28:55.705 : en:01:28:55.705

Скриншоты

Автор релиза:
[Профиль] [ЛС]
Показать сообщения:    

Текущее время: Сегодня 00:34

Часовой пояс: GMT



Вы не можете начинать темы
Вы не можете отвечать на сообщения
Вы не можете редактировать свои сообщения
Вы не можете удалять свои сообщения
Вы не можете голосовать в опросах
Вы не можете прикреплять файлы к сообщениям
Вы не можете скачивать файлы