Уроки тетушки Совы. Всемирная картинная галерея [s01-10] (2007-2008) DVDRip от -merci-

 
Автор Сообщение

Russian Mafia ®

Пол:

Стаж: 1 год 8 месяцев

Сообщений: 4257



Награды: 10 (Подробнее)

Mega Seeder 2 (Количество: 1) Top Releaser 3 (Количество: 1) Top Releaser 4 (Количество: 1)
Торрент-статистика

Создавать темы 31-Мар-2016 04:55

[Цитировать]

Информация о фильме
Название: Уроки тетушки Совы. Всемирная картинная галерея
Год выхода: 2007-2008
Страна: Россия, Украина, ТО "Маски"
Жанр: Мультсериал, обучающий, познавательный, детский
Продолжительность: 68 x ~ 00:10:00
Перевод: не требуется
Режиссер: Сергей Зарев
Озвучка: Тетушка Сова - Ольга Равицкая
О фильме:
В этой увлекательной анимационной программе, полюбившаяся маленьким зрителям, тетушка Сова не только расскажет о знаменитых художниках, но и продемонстрирует их картины. Уникальность программы в том, что каждая серия представляет собой оригинальную сказку, иллюстрированную картинами. Программа будет интересной не только для маленьких зрителей, но и для их родителей. Музыкальный ряд и интерьеры будут переносить зрителя в эпоху, в которую создавал свои произведения тот или иной художник.

Содержание

Выпуск 1:
1. Кацусига Хокусай - Сказка о горе Фудзи Яма
2. Винсент Ван Гог - Сказка о солнечном цветке
3. Данте Габриель Розетти - Сказка о шкатулке Пандоры
4. Нико Пиросмани - Сказка о мечте и мечтателях
5. Рембрандт Ван Рейн - Сказка о капризной принцессе
6. Жан Батист Симеон Шарден - Сказка о ленивом Поле
7. Карл Брюллов - Сказка о проснувшемся вулкане
8. Лоуренс Альма-Тадема - Сказка о цветах и мраморе
Выпуск 2:
1. Пьетро Перуджино - Сказка об Ангеле-хранителе
2. Борис Кустодиев - Русская сказка
3. Искусство древнего Египта - Царевич и Солнце-сокол
4. Альфонс Муха - Сказка о художнике и его Музе
5. Хендрик Аверкамп - Прогулка по зимней Голландии
6. Поль Гоген - Сказка о поисках цвета
7. Витторе Карпаччо - Легенда о храбром рыцаре
8. Архип Куинджи - Солнечный художник
Выпуск 3:
1. Каналетто - Путешествие по Венеции
2. Исаак Левитан - Времена года
3. Карл Шпицвег - Сказка о любителе кактусов
4. Вильям Бугро - Сказка по имени Жизнь
5. Клод Моне - Сказка о воздушном кораблике
6. Тициан Вечеллио - Сказка о настоящей красоте
Выпуск 4:
1. Джованни Беллини - Игра с аллергией
2. Тарас Шевченко - Сказки старого пасечника
3. Марк Шагал - Воображение художника
4. Никола Пуссен - Притча о Моисее
5. Жан Леон Жером - Сказка о верблюжонке Джамале
6. Каспар Давид Фридрих - Таинственная земля мечты
Выпуск 5:
1. Иван Айвазовский - Легенда о Чёрном море
2. Эль Греко - Про ангела, короля и бродягу
3. Хоакин Соролья - Сказка о рыбке
4. Джузепе Арчимбольдо - Фантазии Директора праздников
5. Иоганн Генрих Фюсли - Сон царицы эльфов
6. Джон Эверетт Милле - Две сестры
Выпуск 6:
1. Вильям Брэдфорд - Сказка о кораблике
2. Герард Давид - О деве Марии и чудесном малыше
3. Владимир Маковский - Сказка о лете
4. Клод Лоррен - Сказка о пастухе и музах
5. Джон Оттис Эдамс - Маленькая задавака
6. Алексей Венецианов - Художник русской души
Выпуск 7:
1. Рафаэль Санти - Картина для храма
2. Иван Шишкин - Сказка о пропавших медвежатах
3. Саврасов Алексей Кондратьевич - Сказка о грустном художнике
4. Анри Руссо - Художник - чудак
5. Томас Моран - Путь к надежде
6. Игорь Грабарь - Сказка о красках природы
Выпуск 8:
1. Сарьян Мартирос - Сказка о любви
2. Альбрехт Дюрер - Черно-белая сказка
3. Николае Григореску - Сказка о добром сердце, дороге и волшебном зеркале
4. Пабло Пикассо - Сказка о цирке
5. Василий Поленов - Большие и маленькие путешествия
6. Диего Веласкес - Правдивый друг короля
Выпуск 9:
1. Питер Брейгель - Сказка о крыльях
2. Константин Васильев - Сказание о защитниках земли русской
3. Васнецов Виктор Михайлович - Волшебный мир сказки
4. Клод-Жозеф Верне - Лики моря
5. Томас Гейсборо - Сказка о чудесном роднике
6. Джон Уильям Годвард - Волшебник из Афин
7. Леонардо да Винчи - Волшебная школа природы
8. Жак Луи Давид - Римская империя. Французский император
Выпуск 10:
1. Пьетро Лонги - Прогулки по Венеции
2. Кузьма Петров-Водкин - Мечта художника
3. Илья Репин - Сказочная мозаика
4. Николай Рерих - Сказка о пустынных городах
5. Дэвид Робертс - Путешествие по берегам Нила
6. Питер Пауль Рубенс - Аллегория о Марии Медичи
7. Аркадий Рылов - Художник и лебеди
8. Генрих Семирадский - Адриан и Октавия
-Доп. информация: Обучающая видеопрограмма (для детей от 2-х до 7-ми лет)
Официальный сайт / Семпл-Файл
Формат: AVI
Качество: DVDRip
Видео: 720x400 (1.80:1), 25 fps, XviD build 73 ~1716 kbps avg, 0.24 bit/pixel
Звук: 48 kHz, AC3 Dolby Digital, 2/0 (L,R) ch, ~192.00 kbps avg
Субтитры: нет

MI

5. Рембрандт Ван Рейн - Сказка о капризной принцессе.avi
Format : AVI
Format/Info : Audio Video Interleave
File size : 141 MiB
Duration : 10mn 17s
Overall bit rate : 1 919 Kbps
Writing application : VirtualDubMod 1.5.10.3 | www.virtualdub-fr.org || (build 2550/release)
Writing library : VirtualDubMod build 2550/release
Video
ID : 0
Format : MPEG-4 Visual
Format profile : Advanced Simple@L5
Format settings, BVOP : 2
Format settings, QPel : No
Format settings, GMC : No warppoints
Format settings, Matrix : Default (MPEG)
Codec ID : XVID
Codec ID/Hint : XviD
Duration : 10mn 17s
Bit rate : 1 717 Kbps
Width : 720 pixels
Height : 400 pixels
Display aspect ratio : 16:9
Frame rate : 25.000 fps
Color space : YUV
Chroma subsampling : 4:2:0
Bit depth : 8 bits
Scan type : Progressive
Compression mode : Lossy
Bits/(Pixel*Frame) : 0.238
Stream size : 126 MiB (89%)
Writing library : XviD 73
Audio
ID : 1
Format : AC-3
Format/Info : Audio Coding 3
Mode extension : CM (complete main)
Format settings, Endianness : Big
Codec ID : 2000
Duration : 10mn 17s
Bit rate mode : Constant
Bit rate : 192 Kbps
Channel(s) : 2 channels
Channel positions : Front: L R
Sampling rate : 48.0 KHz
Frame rate : 31.250 fps (1536 spf)
Compression mode : Lossy
Stream size : 14.1 MiB (10%)
Alignment : Split accross interleaves
Interleave, duration : 40 ms (1.00 video frame)
Interleave, preload duratio : 500 ms

Скриншоты

Релиз от: -merci-
[Профиль] [ЛС]
Кто просматривает тему:

Форум Тема Автор Размер
Разная литература Антон Могучий - Развивай свой мозг! Уроки гениев. Леонардо да Винчи, Платон, Станиславский, Пикассо (2016) PDF достали все 1 MB
1С (программы для бизнеса) Видеоуроки по программе 1С: Зарплата и Управление Персоналом (2011-2014) WEBRip sergej644 1.2 GB
Разная литература Горяев Тимур - Шпаргалки для боссов. Жесткие и честные уроки управления, которые лучше выучить на чужом опыте (2016) FB2 достали все 15 MB
Отечественные cериалы Контуженый, или уроки плавания вольным стилем [01-04 из 04] (2014) HDTVRip-AVC Белочка 3.4 GB
Научная и техническая литература Михаил Ильяев - Резьба по дереву. Уроки мастера (2015) PDF достали все 61 MB
Отечественные мультфильмы Пророки и уроки (Вячеслав Котеночкин) [1967, мультипликационный фильм-плакат, DVDRip] Eng hardsub TorrentFilm 175 MB
Разная литература Ребекка Клэйр, Тим Филлипс - Игра престолов. Уроки для жизни и бизнеса (2016) FB2 достали все 3 MB
Разная литература Сборник книг - «Лучшие уроки. Искусство рисования» [5 книг] (2014-2016) PDF достали все 66 MB
Показать сообщения:    

Текущее время: Сегодня 06:05

Часовой пояс: GMT



Вы не можете начинать темы
Вы не можете отвечать на сообщения
Вы не можете редактировать свои сообщения
Вы не можете удалять свои сообщения
Вы не можете голосовать в опросах
Вы не можете прикреплять файлы к сообщениям
Вы не можете скачивать файлы