Уроки полета / Flying Lessons (Дерек Магияр / Derek Magyar) [2010, США, драма, HDTVRip] MVO

 
Автор Сообщение

reversefile ®

Пол:

Стаж: 4 года 5 месяцев

Сообщений: 842

Откуда: ReverseFile.org



Награды: Нет

Торрент-статистика

Создавать темы 13-Авг-2014 10:03

[Цитировать]

Уроки полета / Flying Lessons
Страна: США
Жанр: драма
Год выпуска: 2010
Продолжительность: 01:39:34
Перевод: Профессиональный (многоголосый закадровый)
Cубтитры: нет
Режиссер: Дерек Магияр / Derek Magyar
В ролях: Мэгги Грэйс, Кэри Элвис, Джоанна Кэссиди, Джонатан Такер, Йен Энтони Дэйл, Никки Делоач, Хэл Холбрук...
Описание: Картина, снятая в жанре драмы, рассказывает о молодой 25-летней женщине по имени Софи Конвэй, жизнь которой оказалась на распутье. Софи возвращается в родной городок, который хотела бы навсегда оставить в прошлом. Дома она встречается с бывшими друзьями и любовниками, а также пытается разобраться в отношениях со своей матерью, осложнившимися после самоубийства отца. Кроме этого, путь Софи пересекается с Гарри Плезантом — человеком, страдающим болезнью Альцгеймера, который учит героиню ценить прошлое и воспоминания, связанные с ним.
Сэмпл: https://yadi.sk/i/1NDethsXWykFt
Доп. информация: За предоставленный рип благодарим Ledy_X
Качество видео: HDTVRip
Формат видео: AVI
Видео: 720x400 (1.80:1), 25 fps, XviD build 50 ~2199 kbps avg, 0.30 bit/pixel
Аудио: 48 kHz, AC3 Dolby Digital, 2/0 (L,R) ch, ~192 kbps

MediaInfo

Уроки полета - Flying Lessons [Rip by Ledy_X].avi
Format : AVI
Format/Info : Audio Video Interleave
File size : 1.67 GiB
Duration : 1h 39mn
Overall bit rate : 2 401 Kbps
Movie name : Уроки полета - Flying Lessons [Rip by Ledy_X]
Director : Rip by Ledy_X
Writing application : VirtualDubMod 1.5.10.3 | www.virtualdub-fr.org || (build 2550/release)
Copyright : Edich2
Comment : RuTracker.org
Video
ID : 0
Format : MPEG-4 Visual
Format profile : Advanced Simple@L5
Format settings, BVOP : 1
Format settings, QPel : No
Format settings, GMC : No warppoints
Format settings, Matrix : Default (MPEG)
Codec ID : XVID
Codec ID/Hint : XviD
Duration : 1h 39mn
Bit rate : 2 199 Kbps
Width : 720 pixels
Height : 400 pixels
Display aspect ratio : 16:9
Frame rate : 25.000 fps
Color space : YUV
Chroma subsampling : 4:2:0
Bit depth : 8 bits
Scan type : Progressive
Compression mode : Lossy
Bits/(Pixel*Frame) : 0.305
Stream size : 1.53 GiB (92%)
Writing library : XviD 1.2.1 (UTC 2008-12-04)
Audio
ID : 1
Format : AC-3
Format/Info : Audio Coding 3
Mode extension : CM (complete main)
Format settings, Endianness : Big
Codec ID : 2000
Duration : 1h 39mn
Bit rate mode : Constant
Bit rate : 192 Kbps
Channel(s) : 2 channels
Channel positions : Front: L R
Sampling rate : 48.0 KHz
Bit depth : 16 bits
Compression mode : Lossy
Stream size : 137 MiB (8%)
Alignment : Split accross interleaves
Interleave, duration : 40 ms (1.00 video frame)
Interleave, preload duration : 500 ms

Скриншоты


[Профиль] [ЛС]

Создавать темы 06-Авг-2015 23:18 (спустя 11 месяцев 24 дня)

Топик был перенесен из форума Фильмы до 2014 года в форум Фильмы до 2012 года
sergej644
 

Создавать темы 12-Июн-2016 07:54 (спустя 1 год 9 месяцев)

Топик был перенесен из форума Фильмы 2011 года в форум Фильмы 2010 года
Russian Mafia
 
Кто просматривает тему:

Форум Тема Автор Размер
Разная литература Антон Могучий - Развивай свой мозг! Уроки гениев. Леонардо да Винчи, Платон, Станиславский, Пикассо (2016) PDF достали все 1 MB
1С (программы для бизнеса) Видеоуроки по программе 1С: Зарплата и Управление Персоналом (2011-2014) WEBRip sergej644 1.2 GB
Разная литература Горяев Тимур - Шпаргалки для боссов. Жесткие и честные уроки управления, которые лучше выучить на чужом опыте (2016) FB2 достали все 15 MB
Отечественные cериалы Контуженый, или уроки плавания вольным стилем [01-04 из 04] (2014) HDTVRip-AVC Белочка 3.4 GB
Научная и техническая литература Михаил Ильяев - Резьба по дереву. Уроки мастера (2015) PDF достали все 61 MB
Отечественные мультфильмы Пророки и уроки (Вячеслав Котеночкин) [1967, мультипликационный фильм-плакат, DVDRip] Eng hardsub TorrentFilm 175 MB
Разная литература Ребекка Клэйр, Тим Филлипс - Игра престолов. Уроки для жизни и бизнеса (2016) FB2 достали все 3 MB
Разная литература Сборник книг - «Лучшие уроки. Искусство рисования» [5 книг] (2014-2016) PDF достали все 66 MB
Показать сообщения:    

Текущее время: Сегодня 08:20

Часовой пояс: GMT



Вы не можете начинать темы
Вы не можете отвечать на сообщения
Вы не можете редактировать свои сообщения
Вы не можете удалять свои сообщения
Вы не можете голосовать в опросах
Вы не можете прикреплять файлы к сообщениям
Вы не можете скачивать файлы