Уроки гармонии / Harmony Lessons (2013) DVDRip | Sub

 
Автор Сообщение

Russian Mafia ®

Пол:

Стаж: 1 год 8 месяцев

Сообщений: 4257



Награды: 10 (Подробнее)

Top Releaser 2 (Количество: 1) Top Releaser 4 (Количество: 1) Mega Seeder 2 (Количество: 1)
Торрент-статистика

Создавать темы 12-Апр-2016 11:47

[Цитировать]

Информация о фильме
Название: Уроки гармонии
Оригинальное название: Harmony Lessons
Год выхода: 2013
Жанр: драма
Режиссер: Эмир Байгазин
Автор сценария: Эмир Байгазин
В ролях: Тимур Айдарбеков, Аслан Анарбаев, Мухтар Андасов, Анэля Адильбекова, Омар Адилов, Адлет Анарбеков
О фильме:
Во время медосмотра 13-летнего Аслана унижают перед толпой его одноклассников. Этот инцидент дает толчок развитию его скрытых расстройств личности. Терзаемый неуверенностью в себе, он стремится к чистоте и совершенству, и одержим желанием контролировать все вокруг себя. Аслан живет со своей бабушкой в деревне, в Казахстане, и его компульсивность в итоге приведет к непростым ситуациям…

Страна: Казахстан, Германия, Франция
Студия: Студия Казахфильм, The Post Republic, Rohfilm, Arizona Films
Продолжительность: 01:54:39
Перевод: субтитры (русские)
Оригинальная аудиодорожка: казахский
Файл
Качество: DVDRip
Формат видео: AVI
Кодек: XviD
Видео: 704x400 (16:9), 25.000 fps, XviD build 73 ~1 626 kbps avg, 0.231 bit/pixel
Звук: 48.0 kHz, MPEG Layer 3, 2 ch, ~192.00 kbps avg
Формат субтитров: hardsub (неотключаемые)
Дата премьеры (мир): 14 февраля 2013-
Премия Берлинского кинофестиваля, 2013 год
» Серебряный Медведь за выдающиеся художественные достижения (Азиз Жамбакиев) | оператор
» Приз газеты Berliner Morgenpost

Media Info

General
Complete name : Уроки гармонии (2013).avi
Format : AVI
Format/Info : Audio Video Interleave
File size : 1.46 GiB
Duration : 1h 54mn
Overall bit rate : 1 828 Kbps
Writing library : VirtualDub build 35576/release
Video
ID : 0
Format : MPEG-4 Visual
Format profile : Advanced Simple@L5
Format settings, BVOP : 2
Format settings, QPel : No
Format settings, GMC : No warppoints
Format settings, Matrix : Default (H.263)
Codec ID : XVID
Codec ID/Hint : XviD
Duration : 1h 54mn
Bit rate : 1 626 Kbps
Width : 704 pixels
Height : 400 pixels
Display aspect ratio : 16:9
Frame rate : 25.000 fps
Color space : YUV
Chroma subsampling : 4:2:0
Bit depth : 8 bits
Scan type : Progressive
Compression mode : Lossy
Bits/(Pixel*Frame) : 0.231
Stream size : 1.30 GiB (89%)
Writing library : XviD 73
Audio
ID : 1
Format : MPEG Audio
Format version : Version 1
Format profile : Layer 3
Mode : Joint stereo
Codec ID : 55
Codec ID/Hint : MP3
Duration : 1h 54mn
Bit rate mode : Constant
Bit rate : 192 Kbps
Channel(s) : 2 channels
Sampling rate : 48.0 KHz
Compression mode : Lossy
Stream size : 157 MiB (11%)
Alignment : Split accross interleaves
Interleave, duration : 40 ms (1.00 video frame)
Interleave, preload duratio : 500 ms

Скриншоты

[Профиль] [ЛС]
Кто просматривает тему:

Форум Тема Автор Размер
Разная литература Антон Могучий - Развивай свой мозг! Уроки гениев. Леонардо да Винчи, Платон, Станиславский, Пикассо (2016) PDF достали все 1 MB
1С (программы для бизнеса) Видеоуроки по программе 1С: Зарплата и Управление Персоналом (2011-2014) WEBRip sergej644 1.2 GB
Разная литература Горяев Тимур - Шпаргалки для боссов. Жесткие и честные уроки управления, которые лучше выучить на чужом опыте (2016) FB2 достали все 15 MB
Отечественные cериалы Контуженый, или уроки плавания вольным стилем [01-04 из 04] (2014) HDTVRip-AVC Белочка 3.4 GB
Научная и техническая литература Михаил Ильяев - Резьба по дереву. Уроки мастера (2015) PDF достали все 61 MB
Отечественные мультфильмы Пророки и уроки (Вячеслав Котеночкин) [1967, мультипликационный фильм-плакат, DVDRip] Eng hardsub TorrentFilm 175 MB
Разная литература Ребекка Клэйр, Тим Филлипс - Игра престолов. Уроки для жизни и бизнеса (2016) FB2 достали все 3 MB
Разная литература Сборник книг - «Лучшие уроки. Искусство рисования» [5 книг] (2014-2016) PDF достали все 66 MB
Показать сообщения:    

Текущее время: Сегодня 18:28

Часовой пояс: GMT



Вы не можете начинать темы
Вы не можете отвечать на сообщения
Вы не можете редактировать свои сообщения
Вы не можете удалять свои сообщения
Вы не можете голосовать в опросах
Вы не можете прикреплять файлы к сообщениям
Вы не можете скачивать файлы