Уроки вождения / Driving Lessons (Джереми Брок / Jeremy Brock) [2006, Великобритания, драма, комедия, DVDRip] MVO + Sub (Rus) + Original (Eng)

 
Автор Сообщение

TorrentFilm ®

Пол:

Стаж: 2 года

Сообщений: 7741



Награды: Нет

Торрент-статистика

Создавать темы 29-Фев-2016 00:09

[Цитировать]

Уроки вождения / Driving Lessons
Страна: Великобритания
Жанр: драма, комедия
Годы выпуска: 2006
Продолжительность: 01:33:59
Перевод: Профессиональный (многоголосый закадровый)
Субтитры: русские
Оригинальная аудиодорожка: английский
Режиссер: Джереми Брок / Jeremy Brock
В ролях: Джули Уолтерс, Руперт Гринт, Лора Линни, Николас Фэррел, Джим Нортон, Мишель Дункан, Оливер Милберн, Тэмсин Эгертон
Описание: Летние каникулы Бена заняты изучением Библии, работой по дому и уроками вождения, которые он получает от своей властной и крайне религиозной матери. Это явно не может быть пределом мечтаний в семнадцать лет, но у него просто нет выбора.
Однако его расписанная по минутам жизнь начинает стремительно меняться, когда он устраивается подрабатывать у Эви, экс- первой дамы британского театра и кино. Вульгарная, с чувством собственного достоинства и полная ребячества одновременно, Эви большую часть времени проводит в саду.
Постепенно Бен втягивается в ее общество, несмотря на то, что это влечет за собой ссоры с матерью. В один прекрасный день Эви приглашает Бэна в путешествие на Эдинбургский фестиваль, где она планирует выступать. Бен, преодолев свой врожденный консерватизм, садится за руль.
Далее — путешествие, напоминающее дорогу с двусторонним движением, по которой следуют Бен и Эви, и каждый помогает друг другу двигаться вперед по жизненному пути, который у них так различен.

Доп. информация:
Качество видео: DVDRip | tsyganenok78/DVD9
Формат видео: AVI
Видео: 720x384 (1.88:1), 25 fps, XviD build 73 ~2391 kbps avg, 0.35 bit/pixel
Аудио 1: 48 kHz, AC3 Dolby Digital, 3/2 (L,C,R,l,r) + LFE ch, ~448 kbps MVO
Аудио 2: 48 kHz, AC3 Dolby Digital, 3/2 (L,C,R,l,r) + LFE ch, ~448 kbps оригинал
Формат субтитров: softsub (SRT)

MediaInfo

General
Complete name : C:\Users\User\Desktop\Driving.Lessons.2006.DVDRip.MVO.Eng_by_LBS.avi
Format : AVI
Format/Info : Audio Video Interleave
Format profile : OpenDML
File size : 2.17 GiB
Duration : 1h 33mn
Overall bit rate : 3 305 Kbps
Director : Last Boy Scout
Writing application : VirtualDubMod 1.5.10.3 | www.virtualdub-fr.org || (build 2550/release)
Copyright : torrentfilm.net 28.02.2016
Comment : DVDRip MVO + Original (Eng)
Video
ID : 0
Format : MPEG-4 Visual
Format profile : Advanced Simple@L5
Format settings, BVOP : 1
Format settings, QPel : No
Format settings, GMC : No warppoints
Format settings, Matrix : Custom
Codec ID : XVID
Codec ID/Hint : XviD
Duration : 1h 33mn
Bit rate : 2 390 Kbps
Width : 720 pixels
Height : 384 pixels
Display aspect ratio : 1.85:1
Frame rate : 25.000 fps
Color space : YUV
Chroma subsampling : 4:2:0
Bit depth : 8 bits
Scan type : Progressive
Compression mode : Lossy
Bits/(Pixel*Frame) : 0.346
Stream size : 1.57 GiB (72%)
Writing library : XviD 73
Audio #1
ID : 1
Format : AC-3
Format/Info : Audio Coding 3
Mode extension : CM (complete main)
Format settings, Endianness : Big
Codec ID : 2000
Duration : 1h 33mn
Bit rate mode : Constant
Bit rate : 448 Kbps
Channel(s) : 6 channels
Channel positions : Front: L C R, Side: L R, LFE
Sampling rate : 48.0 KHz
Bit depth : 16 bits
Compression mode : Lossy
Stream size : 301 MiB (14%)
Alignment : Split accross interleaves
Interleave, duration : 40 ms (1.00 video frame)
Interleave, preload duration : 500 ms
Audio #2
ID : 2
Format : AC-3
Format/Info : Audio Coding 3
Mode extension : CM (complete main)
Format settings, Endianness : Big
Codec ID : 2000
Duration : 1h 33mn
Bit rate mode : Constant
Bit rate : 448 Kbps
Channel(s) : 6 channels
Channel positions : Front: L C R, Side: L R, LFE
Sampling rate : 48.0 KHz
Bit depth : 16 bits
Compression mode : Lossy
Stream size : 301 MiB (14%)
Alignment : Split accross interleaves
Interleave, duration : 40 ms (1.00 video frame)
Interleave, preload duration : 500 ms

Скриншоты

-
[Профиль] [ЛС]
Кто просматривает тему:

Форум Тема Автор Размер
Разная литература Антон Могучий - Развивай свой мозг! Уроки гениев. Леонардо да Винчи, Платон, Станиславский, Пикассо (2016) PDF достали все 1 MB
1С (программы для бизнеса) Видеоуроки по программе 1С: Зарплата и Управление Персоналом (2011-2014) WEBRip sergej644 1.2 GB
Разная литература Горяев Тимур - Шпаргалки для боссов. Жесткие и честные уроки управления, которые лучше выучить на чужом опыте (2016) FB2 достали все 15 MB
Отечественные cериалы Контуженый, или уроки плавания вольным стилем [01-04 из 04] (2014) HDTVRip-AVC Белочка 3.4 GB
Научная и техническая литература Михаил Ильяев - Резьба по дереву. Уроки мастера (2015) PDF достали все 61 MB
Отечественные мультфильмы Пророки и уроки (Вячеслав Котеночкин) [1967, мультипликационный фильм-плакат, DVDRip] Eng hardsub TorrentFilm 175 MB
Разная литература Ребекка Клэйр, Тим Филлипс - Игра престолов. Уроки для жизни и бизнеса (2016) FB2 достали все 3 MB
Разная литература Сборник книг - «Лучшие уроки. Искусство рисования» [5 книг] (2014-2016) PDF достали все 66 MB
Показать сообщения:    

Текущее время: Сегодня 08:00

Часовой пояс: GMT



Вы не можете начинать темы
Вы не можете отвечать на сообщения
Вы не можете редактировать свои сообщения
Вы не можете удалять свои сообщения
Вы не можете голосовать в опросах
Вы не можете прикреплять файлы к сообщениям
Вы не можете скачивать файлы