Урга территория любви (Никита Михалков) [1991, СССР, Франция, Психологическая драма, DVD5] [Гранд рекордс] VO

 
Автор Сообщение

TorrentFilm ®

Пол:

Стаж: 2 года

Сообщений: 7741



Награды: Нет

Торрент-статистика

Создавать темы 11-Июл-2015 00:08

[Цитировать]

Урга территория любви
Совместное производство: СССР, Франция
Производство студий: TPИTЭ, САМЕRА ОNЕ, НАСНЕТТЕ РRЕМIЕR
Жанр: Психологическая драма
Год выпуска: 1991
Продолжительность: 01:49:42
Перевод фрагментов с Монгольской и Китайской речью:
Авторский (одноголосый закадровый) Никита Михалков
Cубтитры: Отсутствуют
Оригинальная аудиодорожка: Russian
Режиссер: Никита Михалков
В ролях: Бадема, Байярту, Владимир Гостюхин,
Бабушка, Лариса Кузнецова, Джон Бочинский,
Ёнянь Бао, Вуриниль, Бяо Ван, Байюнгя и др.
Описание: В бескрайней Монгольской степи рядом с Китаем,
живёт семья пастуха-кочевника Гомбо. Его жена и трое их детей,
ну и конечно же, вместе с ними живёт бабушка! Согласно Китайским законам,
Монголам нельзя иметь больше троих детей. Вот и поехал Гомбо в город
купить конфеты для детей, телевизор, велосипед, и презервативы...
Дополнительные материалы:
Смотрите на DVD - Автостоп, Сибирский цирюльник, Утомлённые солнцем.
Меню: Русскоязычное статичное озвученное
Издатель диска: Гранд рекордс
Тип релиза: DVD5
Контейнер: DVD-Video
Видео кодек: MPEG-2
Аудио кодек: AC-3
Video: PAL 4:3 (720x576) VBR, 4414 kbps - 8000 kbps
Аudio: Russian (Dolby AC3, 2 ch) CBR 192 kbps, Front: L R, 48.0 KHz 16 bits

DVDInfo

Title: Urga_territoria_lubvi_1991_DVD5_[torrentfilm.net]Size: 3.95 Gb ( 4 143 894,00 KBytes ) - DVD-5Enabled regions: 1, 2, 3, 4, 5, 6, 7, 8
VTS_01 : Play Length: 00:00:10 Video: PAL 4:3 (720x576) VBR
VTS_02 : Play Length: 00:00:21 Video: PAL 4:3 (720x576) VBR Audio: Russian (Dolby AC3, 6 ch)
VTS_03 : Play Length: 01:49:42 Video: PAL 4:3 (720x576) VBR Audio: Russian (Dolby AC3, 2 ch)
VTS_04 : Play Length: 00:01:12 Video: PAL 4:3 (720x576) VBR Audio: English (Dolby AC3, 2 ch)
VTS_05 : Play Length: 00:01:42 Video: PAL 16:9 (720x576) VBR, Auto Letterboxed Audio: English (Dolby AC3, 6 ch)
VTS_06 : Play Length: 00:01:27 Video: PAL 4:3 (720x576) VBR Audio: English (Dolby AC3, 2 ch)
* Menus Information *
VIDEO_TS MenuVideo: PAL 4:3 (720x576) VBREnglish Language Unit : Title Menu
VTS_01 MenuVideo: PAL 4:3 (720x576) VBRAudio: Not specified (Dolby AC3, 5 ch)English Language Unit : Root Menu Chapter (PTT) Menu
VTS_02 MenuVideo: PAL 4:3 (720x576) VBREnglish Language Unit : Root Menu
VTS_03 MenuVideo: PAL 4:3 (720x576) VBREnglish Language Unit : Root Menu
VTS_04 MenuVideo: PAL 4:3 (720x576) VBREnglish Language Unit : Root Menu
VTS_05 MenuVideo: PAL 4:3 (720x576) VBREnglish Language Unit : Root Menu
VTS_06 MenuVideo: PAL 4:3 (720x576) VBREnglish Language Unit : Root Menu

MediaInfo

ОбщееПолное имя : E:\Urga_territoria_lubvi_1991_DVD5_[torrentfilm.net]\VIDEO_TS\VIDEO_TS.BUPФормат : DVD VideoПрофиль формата : MenuРазмер файла : 14,0 КбайтРежим общего битрейта : Переменный
ВидеоИдентификатор : 224 (0xE0)Формат : MPEG VideoВерсия формата : Version 2Вид битрейта : ПеременныйШирина : 720 пикселейВысота : 576 пикселейСоотношение сторон : 4:3Частота кадров : 25,000 кадров/секСтандарт вещания : PALМетод сжатия : С потерями
ОбщееПолное имя : E:\Urga_territoria_lubvi_1991_DVD5_[torrentfilm.net]\VIDEO_TS\VIDEO_TS.IFOФормат : DVD VideoПрофиль формата : MenuРазмер файла : 14,0 КбайтРежим общего битрейта : Переменный
ВидеоИдентификатор : 224 (0xE0)Формат : MPEG VideoВерсия формата : Version 2Вид битрейта : ПеременныйШирина : 720 пикселейВысота : 576 пикселейСоотношение сторон : 4:3Частота кадров : 25,000 кадров/секСтандарт вещания : PALМетод сжатия : С потерями
ОбщееПолное имя : E:\Urga_territoria_lubvi_1991_DVD5_[torrentfilm.net]\VIDEO_TS\VTS_01_0.BUPФормат : DVD VideoПрофиль формата : ProgramРазмер файла : 22,0 КбайтПродолжительность : 10 с.Режим общего битрейта : ПеременныйОбщий поток : 18,0 Кбит/сек
ВидеоИдентификатор : 224 (0xE0)Формат : MPEG VideoВерсия формата : Version 2Продолжительность : 10 с.Вид битрейта : ПеременныйБитрейт : 10,4 Кбит/секШирина : 720 пикселейВысота : 576 пикселейСоотношение сторон : 4:3Частота кадров : 25,000 кадров/секСтандарт вещания : PALМетод сжатия : С потерямиБит/(Пиксели*Кадры) : 0.001Размер потока : 12,7 Кбайт (58%)
МенюПродолжительность : 10 с.00:00:00.000 : Chapter 1
ОбщееПолное имя : E:\Urga_territoria_lubvi_1991_DVD5_[torrentfilm.net]\VIDEO_TS\VTS_01_0.IFOФормат : DVD VideoПрофиль формата : ProgramРазмер файла : 22,0 КбайтПродолжительность : 10 с.Режим общего битрейта : ПеременныйОбщий поток : 18,0 Кбит/сек
ВидеоИдентификатор : 224 (0xE0)Формат : MPEG VideoВерсия формата : Version 2Продолжительность : 10 с.Вид битрейта : ПеременныйБитрейт : 10,4 Кбит/секШирина : 720 пикселейВысота : 576 пикселейСоотношение сторон : 4:3Частота кадров : 25,000 кадров/секСтандарт вещания : PALМетод сжатия : С потерямиБит/(Пиксели*Кадры) : 0.001Размер потока : 12,7 Кбайт (58%)
МенюПродолжительность : 10 с.00:00:00.000 : Chapter 1
ОбщееПолное имя : E:\Urga_territoria_lubvi_1991_DVD5_[torrentfilm.net]\VIDEO_TS\VTS_01_0.VOBФормат : MPEG-PSРазмер файла : 1,80 МбайтПродолжительность : 19 с.Режим общего битрейта : ПеременныйОбщий поток : 785 Кбит/сек
ВидеоИдентификатор : 224 (0xE0)Формат : MPEG VideoВерсия формата : Version 2Профиль формата : Main@MainПараметр BVOP формата : НетПараметр матрицы формата : ВыборочнаяПараметр GOP формата : N=1Продолжительность : 40 мс.Вид битрейта : ПеременныйБитрейт : 321 Кбит/секМаксимальный битрейт : 8000 Кбит/секШирина : 720 пикселейВысота : 576 пикселейСоотношение сторон : 4:3Частота кадров : 25,000 кадров/секСтандарт вещания : PALЦветовое пространство : YUVСубдискретизация насыщенности : 4:2:0Битовая глубина : 8 битТип развёртки : ПрогрессивнаяПорядок развёртки : Верхнее поле первоеМетод сжатия : С потерямиБит/(Пиксели*Кадры) : 0.031Размер потока : 1,57 Кбайт (0%)Основные цвета : BT.601 PALХарактеристики трансфера : BT.470 System B, BT.470 System GКоэффициенты матрицы : BT.601
АудиоИдентификатор : 189 (0xBD)-128 (0x80)Формат : AC-3Формат/Информация : Audio Coding 3Расширение режима : CM (complete main)Параметр Endianness формата : BigРежим смешивания : DVD-VideoПродолжительность : 19 с.Вид битрейта : ПостоянныйБитрейт : 448 Кбит/секКаналы : 5 каналовРасположение каналов : Front: L C R, Side: L RЧастота : 48,0 КГцБитовая глубина : 16 битМетод сжатия : С потерямиРазмер потока : 1,03 Мбайт (57%)
ТекстИдентификатор : 189 (0xBD)-32 (0x20)Формат : RLEФормат/Информация : Run-length encodingРежим смешивания : DVD-Video
Меню
ОбщееПолное имя : E:\Urga_territoria_lubvi_1991_DVD5_[torrentfilm.net]\VIDEO_TS\VTS_01_1.VOBФормат : MPEG-PSРазмер файла : 6,07 МбайтПродолжительность : 10 с.Общий поток : 5092 Кбит/сек
ВидеоИдентификатор : 224 (0xE0)Формат : MPEG VideoВерсия формата : Version 2Профиль формата : Main@MainПараметр BVOP формата : ДаПараметр матрицы формата : По умолчаниюПараметр GOP формата : M=3, N=12Продолжительность : 10 с.Битрейт : 5000 Кбит/секШирина : 720 пикселейВысота : 576 пикселейСоотношение сторон : 4:3Частота кадров : 25,000 кадров/секСтандарт вещания : PALЦветовое пространство : YUVСубдискретизация насыщенности : 4:2:0Битовая глубина : 8 битТип развёртки : ПрогрессивнаяМетод сжатия : С потерямиБит/(Пиксели*Кадры) : 0.482Временной код первого кадра : 00:00:00:00Оригинал временного кода : Group of pictures headerРазмер потока : 5,95 Мбайт (98%)Основные цвета : BT.601 PALХарактеристики трансфера : BT.470 System B, BT.470 System GКоэффициенты матрицы : BT.601
Меню
ОбщееПолное имя : E:\Urga_territoria_lubvi_1991_DVD5_[torrentfilm.net]\VIDEO_TS\VTS_02_0.BUPФормат : DVD VideoПрофиль формата : ProgramРазмер файла : 14,0 КбайтПродолжительность : 21 с.Режим общего битрейта : ПеременныйОбщий поток : 5319 бит/сек
ВидеоИдентификатор : 224 (0xE0)Формат : MPEG VideoВерсия формата : Version 2Продолжительность : 21 с.Вид битрейта : ПеременныйШирина : 720 пикселейВысота : 576 пикселейСоотношение сторон : 4:3Частота кадров : 25,000 кадров/секСтандарт вещания : PALМетод сжатия : С потерями
АудиоИдентификатор : 128 (0x80)Формат : AC-3Формат/Информация : Audio Coding 3Продолжительность : 21 с.Каналы : 6 каналовЧастота : 48,0 КГцМетод сжатия : С потерямиЯзык : Russian
МенюПродолжительность : 21 с.00:00:00.000 : Chapter 1List (Audio) : 0
ОбщееПолное имя : E:\Urga_territoria_lubvi_1991_DVD5_[torrentfilm.net]\VIDEO_TS\VTS_02_0.IFOФормат : DVD VideoПрофиль формата : ProgramРазмер файла : 14,0 КбайтПродолжительность : 21 с.Режим общего битрейта : ПеременныйОбщий поток : 5319 бит/сек
ВидеоИдентификатор : 224 (0xE0)Формат : MPEG VideoВерсия формата : Version 2Продолжительность : 21 с.Вид битрейта : ПеременныйШирина : 720 пикселейВысота : 576 пикселейСоотношение сторон : 4:3Частота кадров : 25,000 кадров/секСтандарт вещания : PALМетод сжатия : С потерями
АудиоИдентификатор : 128 (0x80)Формат : AC-3Формат/Информация : Audio Coding 3Продолжительность : 21 с.Каналы : 6 каналовЧастота : 48,0 КГцМетод сжатия : С потерямиЯзык : Russian
МенюПродолжительность : 21 с.00:00:00.000 : Chapter 1List (Audio) : 0
ОбщееПолное имя : E:\Urga_territoria_lubvi_1991_DVD5_[torrentfilm.net]\VIDEO_TS\VTS_02_1.VOBФормат : MPEG-PSРазмер файла : 14,3 МбайтПродолжительность : 21 с.Общий поток : 5563 Кбит/сек
ВидеоИдентификатор : 224 (0xE0)Формат : MPEG VideoВерсия формата : Version 2Профиль формата : Main@MainПараметр BVOP формата : ДаПараметр матрицы формата : ВыборочнаяПараметр GOP формата : VariableПродолжительность : 21 с.Битрейт : 5000 Кбит/секШирина : 720 пикселейВысота : 576 пикселейСоотношение сторон : 4:3Частота кадров : 25,000 кадров/секСтандарт вещания : PALЦветовое пространство : YUVСубдискретизация насыщенности : 4:2:0Битовая глубина : 8 битТип развёртки : ЧересстрочнаяПорядок развёртки : Верхнее поле первоеМетод сжатия : С потерямиБит/(Пиксели*Кадры) : 0.482Временной код первого кадра : 01:04:06:12Оригинал временного кода : Group of pictures headerРазмер потока : 12,8 Мбайт (90%)
АудиоИдентификатор : 189 (0xBD)-128 (0x80)Формат : AC-3Формат/Информация : Audio Coding 3Расширение режима : CM (complete main)Параметр Endianness формата : BigРежим смешивания : DVD-VideoПродолжительность : 21 с.Вид битрейта : ПостоянныйБитрейт : 448 Кбит/секКаналы : 6 каналовРасположение каналов : Front: L C R, Side: L R, LFEЧастота : 48,0 КГцБитовая глубина : 16 битМетод сжатия : С потерямиЗадержка видео : -80 мс.Размер потока : 1,15 Мбайт (8%)
Меню
ОбщееПолное имя : E:\Urga_territoria_lubvi_1991_DVD5_[torrentfilm.net]\VIDEO_TS\VTS_03_0.BUPФормат : DVD VideoПрофиль формата : ProgramРазмер файла : 62,0 КбайтПродолжительность : 1 ч. 49 м.Режим общего битрейта : ПеременныйОбщий поток : 77 бит/сек
ВидеоИдентификатор : 224 (0xE0)Формат : MPEG VideoВерсия формата : Version 2Продолжительность : 1 ч. 49 м.Вид битрейта : ПеременныйШирина : 720 пикселейВысота : 576 пикселейСоотношение сторон : 4:3Частота кадров : 25,000 кадров/секСтандарт вещания : PALМетод сжатия : С потерями
АудиоИдентификатор : 128 (0x80)Формат : AC-3Формат/Информация : Audio Coding 3Продолжительность : 1 ч. 49 м.Каналы : 2 каналаЧастота : 48,0 КГцМетод сжатия : С потерямиЯзык : Russian
МенюПродолжительность : 1 ч. 49 м.00:00:00.000 : Chapter 100:05:55.760 : Chapter 200:12:58.560 : Chapter 300:18:06.240 : Chapter 400:24:11.560 : Chapter 500:31:53.560 : Chapter 600:35:58.040 : Chapter 700:42:02.280 : Chapter 800:47:24.560 : Chapter 900:54:00.280 : Chapter 1000:58:44.320 : Chapter 1101:05:04.360 : Chapter 1201:13:19.560 : Chapter 1301:18:30.240 : Chapter 1401:23:55.960 : Chapter 1501:33:55.480 : Chapter 1601:38:46.040 : Chapter 1701:43:08.880 : Chapter 18List (Audio) : 0
ОбщееПолное имя : E:\Urga_territoria_lubvi_1991_DVD5_[torrentfilm.net]\VIDEO_TS\VTS_03_0.IFOФормат : DVD VideoПрофиль формата : ProgramРазмер файла : 62,0 КбайтПродолжительность : 1 ч. 49 м.Режим общего битрейта : ПеременныйОбщий поток : 77 бит/сек
ВидеоИдентификатор : 224 (0xE0)Формат : MPEG VideoВерсия формата : Version 2Продолжительность : 1 ч. 49 м.Вид битрейта : ПеременныйШирина : 720 пикселейВысота : 576 пикселейСоотношение сторон : 4:3Частота кадров : 25,000 кадров/секСтандарт вещания : PALМетод сжатия : С потерями
АудиоИдентификатор : 128 (0x80)Формат : AC-3Формат/Информация : Audio Coding 3Продолжительность : 1 ч. 49 м.Каналы : 2 каналаЧастота : 48,0 КГцМетод сжатия : С потерямиЯзык : Russian
МенюПродолжительность : 1 ч. 49 м.00:00:00.000 : Chapter 100:05:55.760 : Chapter 200:12:58.560 : Chapter 300:18:06.240 : Chapter 400:24:11.560 : Chapter 500:31:53.560 : Chapter 600:35:58.040 : Chapter 700:42:02.280 : Chapter 800:47:24.560 : Chapter 900:54:00.280 : Chapter 1000:58:44.320 : Chapter 1101:05:04.360 : Chapter 1201:13:19.560 : Chapter 1301:18:30.240 : Chapter 1401:23:55.960 : Chapter 1501:33:55.480 : Chapter 1601:38:46.040 : Chapter 1701:43:08.880 : Chapter 18List (Audio) : 0
ОбщееПолное имя : E:\Urga_territoria_lubvi_1991_DVD5_[torrentfilm.net]\VIDEO_TS\VTS_03_1.VOBФормат : MPEG-PSРазмер файла : 1024 МбайтПродолжительность : 30 м.Режим общего битрейта : ПеременныйОбщий поток : 4700 Кбит/сек
ВидеоИдентификатор : 224 (0xE0)Формат : MPEG VideoВерсия формата : Version 2Профиль формата : Main@MainПараметр BVOP формата : ДаПараметр матрицы формата : ВыборочнаяПараметр GOP формата : M=3, N=15Продолжительность : 30 м.Вид битрейта : ПеременныйБитрейт : 4414 Кбит/секМаксимальный битрейт : 8000 Кбит/секШирина : 720 пикселейВысота : 576 пикселейСоотношение сторон : 4:3Частота кадров : 25,000 кадров/секСтандарт вещания : PALЦветовое пространство : YUVСубдискретизация насыщенности : 4:2:0Битовая глубина : 8 битТип развёртки : ЧересстрочнаяПорядок развёртки : Верхнее поле первоеМетод сжатия : С потерямиБит/(Пиксели*Кадры) : 0.426Временной код первого кадра : 00:00:00:00Оригинал временного кода : Group of pictures headerРазмер потока : 962 Мбайт (94%)
АудиоИдентификатор : 189 (0xBD)-128 (0x80)Формат : AC-3Формат/Информация : Audio Coding 3Расширение режима : CM (complete main)Параметр Endianness формата : BigРежим смешивания : DVD-VideoПродолжительность : 30 м.Вид битрейта : ПостоянныйБитрейт : 192 Кбит/секКаналы : 2 каналаРасположение каналов : Front: L RЧастота : 48,0 КГцБитовая глубина : 16 битМетод сжатия : С потерямиЗадержка видео : 440 мс.Размер потока : 41,8 Мбайт (4%)
Меню
ОбщееПолное имя : E:\Urga_territoria_lubvi_1991_DVD5_[torrentfilm.net]\VIDEO_TS\VTS_03_2.VOBФормат : MPEG-PSРазмер файла : 1024 МбайтПродолжительность : 31 м.Режим общего битрейта : ПеременныйОбщий поток : 4589 Кбит/сек
ВидеоИдентификатор : 224 (0xE0)Формат : MPEG VideoВерсия формата : Version 2Профиль формата : Main@MainПараметр BVOP формата : ДаПараметр матрицы формата : ВыборочнаяПараметр GOP формата : M=3, N=15Продолжительность : 31 м.Вид битрейта : ПеременныйБитрейт : 4306 Кбит/секМаксимальный битрейт : 8000 Кбит/секШирина : 720 пикселейВысота : 576 пикселейСоотношение сторон : 4:3Частота кадров : 25,000 кадров/секСтандарт вещания : PALЦветовое пространство : YUVСубдискретизация насыщенности : 4:2:0Битовая глубина : 8 битТип развёртки : ЧересстрочнаяПорядок развёртки : Верхнее поле первоеМетод сжатия : С потерямиБит/(Пиксели*Кадры) : 0.415Временной код первого кадра : 00:30:27:19Оригинал временного кода : Group of pictures headerРазмер потока : 961 Мбайт (94%)
АудиоИдентификатор : 189 (0xBD)-128 (0x80)Формат : AC-3Формат/Информация : Audio Coding 3Расширение режима : CM (complete main)Параметр Endianness формата : BigРежим смешивания : DVD-VideoПродолжительность : 31 м.Вид битрейта : ПостоянныйБитрейт : 192 Кбит/секКаналы : 2 каналаРасположение каналов : Front: L RЧастота : 48,0 КГцБитовая глубина : 16 битМетод сжатия : С потерямиЗадержка видео : -568 мс.Размер потока : 42,8 Мбайт (4%)
Меню
ОбщееПолное имя : E:\Urga_territoria_lubvi_1991_DVD5_[torrentfilm.net]\VIDEO_TS\VTS_03_3.VOBФормат : MPEG-PSРазмер файла : 1024 МбайтПродолжительность : 25 м.Режим общего битрейта : ПеременныйОбщий поток : 5516 Кбит/сек
ВидеоИдентификатор : 224 (0xE0)Формат : MPEG VideoВерсия формата : Version 2Профиль формата : Main@MainПараметр BVOP формата : ДаПараметр матрицы формата : ВыборочнаяПараметр GOP формата : M=3, N=15Продолжительность : 25 м.Вид битрейта : ПеременныйБитрейт : 5215 Кбит/секМаксимальный битрейт : 8000 Кбит/секШирина : 720 пикселейВысота : 576 пикселейСоотношение сторон : 4:3Частота кадров : 25,000 кадров/секСтандарт вещания : PALЦветовое пространство : YUVСубдискретизация насыщенности : 4:2:0Битовая глубина : 8 битТип развёртки : ЧересстрочнаяПорядок развёртки : Верхнее поле первоеМетод сжатия : С потерямиБит/(Пиксели*Кадры) : 0.503Временной код первого кадра : 01:01:39:07Оригинал временного кода : Group of pictures headerРазмер потока : 968 Мбайт (95%)
АудиоИдентификатор : 189 (0xBD)-128 (0x80)Формат : AC-3Формат/Информация : Audio Coding 3Расширение режима : CM (complete main)Параметр Endianness формата : BigРежим смешивания : DVD-VideoПродолжительность : 25 м.Вид битрейта : ПостоянныйБитрейт : 192 Кбит/секКаналы : 2 каналаРасположение каналов : Front: L RЧастота : 48,0 КГцБитовая глубина : 16 битМетод сжатия : С потерямиЗадержка видео : -632 мс.Размер потока : 35,6 Мбайт (3%)
Меню
ОбщееПолное имя : E:\Urga_territoria_lubvi_1991_DVD5_[torrentfilm.net]\VIDEO_TS\VTS_03_4.VOBФормат : MPEG-PSРазмер файла : 764 МбайтПродолжительность : 22 м.Режим общего битрейта : ПеременныйОбщий поток : 4831 Кбит/сек
ВидеоИдентификатор : 224 (0xE0)Формат : MPEG VideoВерсия формата : Version 2Профиль формата : Main@MainПараметр BVOP формата : ДаПараметр матрицы формата : ВыборочнаяПараметр GOP формата : VariableПродолжительность : 22 м.Вид битрейта : ПеременныйБитрейт : 4543 Кбит/секМаксимальный битрейт : 8000 Кбит/секШирина : 720 пикселейВысота : 576 пикселейСоотношение сторон : 4:3Частота кадров : 25,000 кадров/секСтандарт вещания : PALЦветовое пространство : YUVСубдискретизация насыщенности : 4:2:0Битовая глубина : 8 битТип развёртки : ЧересстрочнаяПорядок развёртки : Верхнее поле первоеМетод сжатия : С потерямиБит/(Пиксели*Кадры) : 0.438Временной код первого кадра : 01:27:35:19Оригинал временного кода : Group of pictures headerРазмер потока : 718 Мбайт (94%)
АудиоИдентификатор : 189 (0xBD)-128 (0x80)Формат : AC-3Формат/Информация : Audio Coding 3Расширение режима : CM (complete main)Параметр Endianness формата : BigРежим смешивания : DVD-VideoПродолжительность : 22 м.Вид битрейта : ПостоянныйБитрейт : 192 Кбит/секКаналы : 2 каналаРасположение каналов : Front: L RЧастота : 48,0 КГцБитовая глубина : 16 битМетод сжатия : С потерямиЗадержка видео : -184 мс.Размер потока : 30,4 Мбайт (4%)
Меню
ОбщееПолное имя : E:\Urga_territoria_lubvi_1991_DVD5_[torrentfilm.net]\VIDEO_TS\VTS_04_0.BUPФормат : DVD VideoПрофиль формата : ProgramРазмер файла : 14,0 КбайтПродолжительность : 1 м. 12 с.Режим общего битрейта : ПеременныйОбщий поток : 1592 бит/сек
ВидеоИдентификатор : 224 (0xE0)Формат : MPEG VideoВерсия формата : Version 2Продолжительность : 1 м. 12 с.Вид битрейта : ПеременныйШирина : 720 пикселейВысота : 576 пикселейСоотношение сторон : 4:3Частота кадров : 25,000 кадров/секСтандарт вещания : PALМетод сжатия : С потерями
АудиоИдентификатор : 128 (0x80)Формат : AC-3Формат/Информация : Audio Coding 3Продолжительность : 1 м. 12 с.Каналы : 2 каналаЧастота : 48,0 КГцМетод сжатия : С потерямиЯзык : English
МенюПродолжительность : 1 м. 12 с.00:00:00.000 : Chapter 1List (Audio) : 0
ОбщееПолное имя : E:\Urga_territoria_lubvi_1991_DVD5_[torrentfilm.net]\VIDEO_TS\VTS_04_0.IFOФормат : DVD VideoПрофиль формата : ProgramРазмер файла : 14,0 КбайтПродолжительность : 1 м. 12 с.Режим общего битрейта : ПеременныйОбщий поток : 1592 бит/сек
ВидеоИдентификатор : 224 (0xE0)Формат : MPEG VideoВерсия формата : Version 2Продолжительность : 1 м. 12 с.Вид битрейта : ПеременныйШирина : 720 пикселейВысота : 576 пикселейСоотношение сторон : 4:3Частота кадров : 25,000 кадров/секСтандарт вещания : PALМетод сжатия : С потерями
АудиоИдентификатор : 128 (0x80)Формат : AC-3Формат/Информация : Audio Coding 3Продолжительность : 1 м. 12 с.Каналы : 2 каналаЧастота : 48,0 КГцМетод сжатия : С потерямиЯзык : English
МенюПродолжительность : 1 м. 12 с.00:00:00.000 : Chapter 1List (Audio) : 0
ОбщееПолное имя : E:\Urga_territoria_lubvi_1991_DVD5_[torrentfilm.net]\VIDEO_TS\VTS_04_1.VOBФормат : MPEG-PSРазмер файла : 54,6 МбайтПродолжительность : 1 м. 12 с.Общий поток : 6356 Кбит/сек
ВидеоИдентификатор : 224 (0xE0)Формат : MPEG VideoВерсия формата : Version 2Профиль формата : Main@MainПараметр BVOP формата : ДаПараметр матрицы формата : ВыборочнаяПараметр GOP формата : M=2, N=4Продолжительность : 1 м. 12 с.Битрейт : 6000 Кбит/секШирина : 720 пикселейВысота : 576 пикселейСоотношение сторон : 4:3Частота кадров : 25,000 кадров/секСтандарт вещания : PALЦветовое пространство : YUVСубдискретизация насыщенности : 4:2:0Битовая глубина : 8 битТип развёртки : ЧересстрочнаяПорядок развёртки : Верхнее поле первоеМетод сжатия : С потерямиБит/(Пиксели*Кадры) : 0.579Временной код первого кадра : 01:46:15:00Оригинал временного кода : Group of pictures headerРазмер потока : 51,8 Мбайт (95%)
АудиоИдентификатор : 189 (0xBD)-128 (0x80)Формат : AC-3Формат/Информация : Audio Coding 3Профиль формата : Dolby DigitalРасширение режима : CM (complete main)Параметр Endianness формата : BigРежим смешивания : DVD-VideoПродолжительность : 1 м. 12 с.Вид битрейта : ПостоянныйБитрейт : 192 Кбит/секКаналы : 2 каналаРасположение каналов : Front: L RЧастота : 48,0 КГцБитовая глубина : 16 битМетод сжатия : С потерямиЗадержка видео : -40 мс.Размер потока : 1,65 Мбайт (3%)
Меню
ОбщееПолное имя : E:\Urga_territoria_lubvi_1991_DVD5_[torrentfilm.net]\VIDEO_TS\VTS_05_0.BUPФормат : DVD VideoПрофиль формата : ProgramРазмер файла : 14,0 КбайтПродолжительность : 1 м. 42 с.Режим общего битрейта : ПеременныйОбщий поток : 1115 бит/сек
ВидеоИдентификатор : 224 (0xE0)Формат : MPEG VideoВерсия формата : Version 2Продолжительность : 1 м. 42 с.Вид битрейта : ПеременныйШирина : 720 пикселейВысота : 576 пикселейСоотношение сторон : 16:9Частота кадров : 25,000 кадров/секСтандарт вещания : PALМетод сжатия : С потерями
АудиоИдентификатор : 128 (0x80)Формат : AC-3Формат/Информация : Audio Coding 3Продолжительность : 1 м. 42 с.Каналы : 6 каналовЧастота : 48,0 КГцМетод сжатия : С потерямиЯзык : English
МенюПродолжительность : 1 м. 42 с.00:00:00.000 : Chapter 1List (Audio) : 0
ОбщееПолное имя : E:\Urga_territoria_lubvi_1991_DVD5_[torrentfilm.net]\VIDEO_TS\VTS_05_0.IFOФормат : DVD VideoПрофиль формата : ProgramРазмер файла : 14,0 КбайтПродолжительность : 1 м. 42 с.Режим общего битрейта : ПеременныйОбщий поток : 1115 бит/сек
ВидеоИдентификатор : 224 (0xE0)Формат : MPEG VideoВерсия формата : Version 2Продолжительность : 1 м. 42 с.Вид битрейта : ПеременныйШирина : 720 пикселейВысота : 576 пикселейСоотношение сторон : 16:9Частота кадров : 25,000 кадров/секСтандарт вещания : PALМетод сжатия : С потерями
АудиоИдентификатор : 128 (0x80)Формат : AC-3Формат/Информация : Audio Coding 3Продолжительность : 1 м. 42 с.Каналы : 6 каналовЧастота : 48,0 КГцМетод сжатия : С потерямиЯзык : English
МенюПродолжительность : 1 м. 42 с.00:00:00.000 : Chapter 1List (Audio) : 0
ОбщееПолное имя : E:\Urga_territoria_lubvi_1991_DVD5_[torrentfilm.net]\VIDEO_TS\VTS_05_1.VOBФормат : MPEG-PSРазмер файла : 68,2 МбайтПродолжительность : 1 м. 42 с.Общий поток : 5563 Кбит/сек
ВидеоИдентификатор : 224 (0xE0)Формат : MPEG VideoВерсия формата : Version 2Профиль формата : Main@MainПараметр BVOP формата : ДаПараметр матрицы формата : ВыборочнаяПараметр GOP формата : M=3, N=12Продолжительность : 1 м. 42 с.Битрейт : 5000 Кбит/секШирина : 720 пикселейВысота : 576 пикселейСоотношение сторон : 4:3Частота кадров : 25,000 кадров/секСтандарт вещания : PALЦветовое пространство : YUVСубдискретизация насыщенности : 4:2:0Битовая глубина : 8 битТип развёртки : ЧересстрочнаяПорядок развёртки : Верхнее поле первоеМетод сжатия : С потерямиБит/(Пиксели*Кадры) : 0.482Временной код первого кадра : 02:00:39:14Оригинал временного кода : Group of pictures headerРазмер потока : 61,3 Мбайт (90%)
АудиоИдентификатор : 189 (0xBD)-128 (0x80)Формат : AC-3Формат/Информация : Audio Coding 3Расширение режима : CM (complete main)Параметр Endianness формата : BigРежим смешивания : DVD-VideoПродолжительность : 1 м. 42 с.Вид битрейта : ПостоянныйБитрейт : 448 Кбит/секКаналы : 6 каналовРасположение каналов : Front: L C R, Side: L R, LFEЧастота : 48,0 КГцБитовая глубина : 16 битМетод сжатия : С потерямиЗадержка видео : -80 мс.Размер потока : 5,49 Мбайт (8%)
Меню
ОбщееПолное имя : E:\Urga_territoria_lubvi_1991_DVD5_[torrentfilm.net]\VIDEO_TS\VTS_06_0.BUPФормат : DVD VideoПрофиль формата : ProgramРазмер файла : 14,0 КбайтПродолжительность : 1 м. 27 с.Режим общего битрейта : ПеременныйОбщий поток : 1315 бит/сек
ВидеоИдентификатор : 224 (0xE0)Формат : MPEG VideoВерсия формата : Version 2Продолжительность : 1 м. 27 с.Вид битрейта : ПеременныйШирина : 720 пикселейВысота : 576 пикселейСоотношение сторон : 4:3Частота кадров : 25,000 кадров/секСтандарт вещания : PALМетод сжатия : С потерями
АудиоИдентификатор : 128 (0x80)Формат : AC-3Формат/Информация : Audio Coding 3Продолжительность : 1 м. 27 с.Каналы : 2 каналаЧастота : 48,0 КГцМетод сжатия : С потерямиЯзык : English
МенюПродолжительность : 1 м. 27 с.00:00:00.000 : Chapter 1List (Audio) : 0
ОбщееПолное имя : E:\Urga_territoria_lubvi_1991_DVD5_[torrentfilm.net]\VIDEO_TS\VTS_06_0.IFOФормат : DVD VideoПрофиль формата : ProgramРазмер файла : 14,0 КбайтПродолжительность : 1 м. 27 с.Режим общего битрейта : ПеременныйОбщий поток : 1315 бит/сек
ВидеоИдентификатор : 224 (0xE0)Формат : MPEG VideoВерсия формата : Version 2Продолжительность : 1 м. 27 с.Вид битрейта : ПеременныйШирина : 720 пикселейВысота : 576 пикселейСоотношение сторон : 4:3Частота кадров : 25,000 кадров/секСтандарт вещания : PALМетод сжатия : С потерями
АудиоИдентификатор : 128 (0x80)Формат : AC-3Формат/Информация : Audio Coding 3Продолжительность : 1 м. 27 с.Каналы : 2 каналаЧастота : 48,0 КГцМетод сжатия : С потерямиЯзык : English
МенюПродолжительность : 1 м. 27 с.00:00:00.000 : Chapter 1List (Audio) : 0
ОбщееПолное имя : E:\Urga_territoria_lubvi_1991_DVD5_[torrentfilm.net]\VIDEO_TS\VTS_06_1.VOBФормат : MPEG-PSРазмер файла : 66,0 МбайтПродолжительность : 1 м. 27 с.Общий поток : 6354 Кбит/сек
ВидеоИдентификатор : 224 (0xE0)Формат : MPEG VideoВерсия формата : Version 2Профиль формата : Main@MainПараметр BVOP формата : ДаПараметр матрицы формата : ВыборочнаяПараметр GOP формата : M=2, N=4Продолжительность : 1 м. 27 с.Битрейт : 6000 Кбит/секШирина : 720 пикселейВысота : 576 пикселейСоотношение сторон : 4:3Частота кадров : 25,000 кадров/секСтандарт вещания : PALЦветовое пространство : YUVСубдискретизация насыщенности : 4:2:0Битовая глубина : 8 битТип развёртки : ЧересстрочнаяПорядок развёртки : Верхнее поле первоеМетод сжатия : С потерямиБит/(Пиксели*Кадры) : 0.579Временной код первого кадра : 00:29:06:21Оригинал временного кода : Group of pictures headerРазмер потока : 62,7 Мбайт (95%)
АудиоИдентификатор : 189 (0xBD)-128 (0x80)Формат : AC-3Формат/Информация : Audio Coding 3Расширение режима : CM (complete main)Параметр Endianness формата : BigРежим смешивания : DVD-VideoПродолжительность : 1 м. 27 с.Вид битрейта : ПостоянныйБитрейт : 192 Кбит/секКаналы : 2 каналаРасположение каналов : Front: L RЧастота : 48,0 КГцБитовая глубина : 16 битМетод сжатия : С потерямиЗадержка видео : -40 мс.Размер потока : 2,00 Мбайт (3%)
Меню

Скриншоты


Скриншоты меню

Дополнительная информация

Дополнительная информация

Раздача: По возможности!!!
[Профиль] [ЛС]

Создавать темы 06-Авг-2015 23:37 (спустя 26 дней)

Топик был перенесен из форума Фильмы (HD DVD, Blu-ray и BDRemux) в форум Фильмы (DVD 5/9)
sergej644
 
Кто просматривает тему:

Показать сообщения:    

Текущее время: Сегодня 00:32

Часовой пояс: GMT



Вы не можете начинать темы
Вы не можете отвечать на сообщения
Вы не можете редактировать свои сообщения
Вы не можете удалять свои сообщения
Вы не можете голосовать в опросах
Вы не можете прикреплять файлы к сообщениям
Вы не можете скачивать файлы