Ураган / The Hurricane (1999) BDRip 1080p от NNNB

 
Автор Сообщение

sergej644 ®

Пол:

Стаж: 4 года 11 месяцев

Сообщений: 6046

Откуда: Soviet Union



Награды: Нет

Торрент-статистика

Создавать темы 05-Июл-2015 22:54

[Цитировать]

Ураган / The Hurricane
«His greatest fight was for justice»
Русское название: Ураган
Оригинальное название: The Hurricane
Год выпуска: 1999
Жанр: драма, биография, спорт
Выпущено: США
Режиссер: Норман Джуисон
В ролях: Дензел Вашингтон , Виселос Реон Шеннон , Дебора Кара Ангер , Лив Шрайбер , Джон Ханна , Дэн Хедайя , Дебби Морган , Клэнси Браун , Дэвид Пэймер , Харрис Юлин , Род Стайгер , Баджа Джола
Перевод: Профессиональный многоголосый [НТВ+]

Сюжет фильма:
Фильм основан на реальных фактах из жизни боксера Рубина Картера по прозвищу «Ураган» - главного претендента на чемпионский титул в среднем весе в июне 1966 года. После убийства трех человек в одном из баров Нью-Джерси его обвинили в этом страшном преступлении и приговорили к трем пожизненным тюремным срокам.

Качество: BDRip 1080p
Формат: AVC (библиотека кодирования x.264)
Контейнер (Расширение): MKV
Видео: 1910x1040, 10260 Кбит/сек, 23,976 кадр/сек, 0,215 Бит/[Пиксели*Кадры]
Аудио №1: русский / AC3 / 5.1 / 48 kHz / 448 kbps / |Профессиональный многоголосый [НТВ+]|
Аудио №2: английский / AC3 / 5.1 / 48 kHz / 640 kbps /
Субтитры: русские, английские
Навигация по главам(Чаптеры): есть
Продолжительность: 02:25:34
Отдельно звуковые дорожки:
Авторский Ю.Живов
Авторский С.Кузнецов

MediaInfo

Format : Matroska
Format version : Version 2
File size : 11.5 GiB
Duration : 2h 25mn
Overall bit rate : 11.3 Mbps
Movie name : Uragan.(1999).BDRip.1080p.[denis100]
Encoded date : UTC 2015-07-05 20:31:36
Writing application : mkvmerge v5.8.0 ('No Sleep / Pillow') built on Sep 2 2012 15:37:04
Writing library : libebml v1.2.3 + libmatroska v1.3.0
Video
ID : 1
Format : AVC
Format/Info : Advanced Video Codec
Format profile : High@L4.1
Format settings, CABAC : Yes
Format settings, ReFrames : 4 frames
Codec ID : V_MPEG4/ISO/AVC
Duration : 2h 25mn
Bit rate : 10.3 Mbps
Width : 1 910 pixels
Height : 1 040 pixels
Display aspect ratio : 16:9
Frame rate : 23.976 fps
Color space : YUV
Chroma subsampling : 4:2:0
Bit depth : 8 bits
Scan type : Progressive
Bits/(Pixel*Frame) : 0.215
Stream size : 10.2 GiB (88%)
Title : Uragan.(1999).BDRip.1080p.[denis100]
Writing library : x264 core 146 r2538 121396c
Encoding settings : cabac=1 / ref=4 / deblock=1:-3:-3 / analyse=0x3:0x133 / me=umh / subme=11 / psy=1 / psy_rd=1.00:0.00 / mixed_ref=1 / me_range=32 / chroma_me=1 / trellis=2 / 8x8dct=1 / cqm=0 / deadzone=21,11 / fast_pskip=0 / chroma_qp_offset=-2 / threads=6 / lookahead_threads=1 / sliced_threads=0 / nr=0 / decimate=1 / interlaced=0 / bluray_compat=0 / constrained_intra=0 / bframes=8 / b_pyramid=2 / b_adapt=2 / b_bias=0 / direct=3 / weightb=1 / open_gop=0 / weightp=2 / keyint=240 / keyint_min=23 / scenecut=40 / intra_refresh=0 / rc=2pass / mbtree=0 / bitrate=10260 / ratetol=1.0 / qcomp=0.60 / qpmin=0 / qpmax=69 / qpstep=4 / cplxblur=20.0 / qblur=0.5 / ip_ratio=1.40 / pb_ratio=1.30 / aq=1:0.90
Language : English
Default : Yes
Forced : No
Audio #1
ID : 2
Format : AC-3
Format/Info : Audio Coding 3
Mode extension : CM (complete main)
Codec ID : A_AC3
Duration : 2h 25mn
Bit rate mode : Constant
Bit rate : 448 Kbps
Channel(s) : 6 channels
Channel positions : Front: L C R, Side: L R, LFE
Sampling rate : 48.0 KHz
Bit depth : 16 bits
Compression mode : Lossy
Stream size : 466 MiB (4%)
Title : Профессиональный многоголосый, HTB+
Language : Russian
Default : Yes
Forced : No
Audio #2
ID : 3
Format : AC-3
Format/Info : Audio Coding 3
Mode extension : CM (complete main)
Codec ID : A_AC3
Duration : 2h 25mn
Bit rate mode : Constant
Bit rate : 640 Kbps
Channel(s) : 6 channels
Channel positions : Front: L C R, Side: L R, LFE
Sampling rate : 48.0 KHz
Bit depth : 16 bits
Compression mode : Lossy
Stream size : 666 MiB (6%)
Language : English
Default : No
Forced : No
Text #1
ID : 4
Format : UTF-8
Codec ID : S_TEXT/UTF8
Codec ID/Info : UTF-8 Plain Text
Language : Russian
Default : No
Forced : No
Text #2
ID : 5
Format : UTF-8
Codec ID : S_TEXT/UTF8
Codec ID/Info : UTF-8 Plain Text
Language : English
Default : No
Forced : No
Menu
00:00:00.000 : en:00:00:00.000
00:12:00.345 : en:00:12:00.345
00:17:14.533 : en:00:17:14.533
00:29:56.628 : en:00:29:56.628
00:37:58.776 : en:00:37:58.776
00:46:45.428 : en:00:46:45.428
00:58:42.352 : en:00:58:42.352
01:07:21.037 : en:01:07:21.037
01:14:28.589 : en:01:14:28.589
01:23:51.026 : en:01:23:51.026
01:33:00.658 : en:01:33:00.658
01:40:10.129 : en:01:40:10.129
01:50:27.287 : en:01:50:27.287
02:03:28.484 : en:02:03:28.484
02:14:59.591 : en:02:14:59.591
02:20:52.736 : en:02:20:52.736

x264

x264 [info]: frame I:1279 Avg QP:14.87 size:167139
x264 [info]: frame P:43793 Avg QP:17.01 size: 86310
x264 [info]: frame B:164354 Avg QP:19.28 size: 43837

Скриншоты

[Профиль] [ЛС]
Кто просматривает тему:

Показать сообщения:    

Текущее время: Сегодня 15:41

Часовой пояс: GMT



Вы не можете начинать темы
Вы не можете отвечать на сообщения
Вы не можете редактировать свои сообщения
Вы не можете удалять свои сообщения
Вы не можете голосовать в опросах
Вы не можете прикреплять файлы к сообщениям
Вы не можете скачивать файлы