Управление климатом. Оружие будущего (Режиссер: Виктор Сапрынский) [2014, Документальный, HDTV 1080i]

 
Автор Сообщение

TorrentFilm ®

Пол:

Стаж: 2 года

Сообщений: 7741



Награды: Нет

Торрент-статистика

Создавать темы 21-Дек-2014 02:15

[Цитировать]

Управление климатом. Оружие будущего
Год выпуска: 2014
Страна: Россия
Студия: ВГТРК
Жанр: Документальный
Продолжительность: 00:44:00
Перевод: Не требуется
Русские субтитры: нет
Режиссер: Режиссер: Виктор Сапрынский
Описание: Что происходит с климатом? Прогноз погоды все больше напоминает фронтовые сводки. Кажется, единственный способ что-то исправить - это взять штурвал климата в свои руки. Лишь бы не было хуже!
Лето 2010 года. Невероятная засуха поразила центральные районы России. Кто или что стоит за этой природной аномалией: загадочное Эль-Ниньо или Пентагон?
Весна 2014 года. На севере Ямала обнаружена гигантская воронка глубиной 100 метров. Что это - взрыв газового хранилища или след от применения мощного инопланетного оружия?
Существует ли климатическое оружие в действительности? Каковы его технические характеристики? Выстрелит ли метангидратное ружье? Авторы документального фильма "Управление климатом. Оружие будущего" попытались найти ответы на эти вопросы.
Автор сценария: Виктор Хохлов
Сэмпл: http://multi-up.com/1017348
Тип релиза: HDTV 1080i
Контейнер: TS
Видео: AVC, 1920х1080, 16:9, 7789 Кбит/сек, 25 fps
Аудио: MPEG Audio, 224 Кбит/сек, 48 КГц, 2 канала

MediaInfo

ОбщееИдентификатор : 16 (0x10)Полное имя : Climate Control. Future Weapons_HD.tsФормат : MPEG-TSРазмер файла : 2,78 ГбайтПродолжительность : 43 м.Режим общего битрейта : ПеременныйОбщий поток : 9053 Кбит/сек
ВидеоИдентификатор : 1901 (0x76D)Идентификатор меню : 901 (0x385)Формат : AVCФормат/Информация : Advanced Video CodecПрофиль формата : High@L4.0Параметр CABAC формата : ДаПараметр ReFrames формата : 3 кадраИдентификатор кодека : 27Продолжительность : 43 м.Битрейт : 8380 Кбит/секШирина : 1920 пикселейВысота : 1080 пикселейСоотношение сторон : 16:9Частота кадров : 25,000 кадров/секСтандарт вещания : PALЦветовое пространство : YUVСубдискретизация насыщенности : 4:2:0Битовая глубина : 8 битТип развёртки : ЧересстрочнаяПорядок развёртки : Верхнее поле первоеБит/(Пиксели*Кадры) : 0.162Размер потока : 2,57 Гбайт (93%)Основные цвета : BT.709Характеристики трансфера : BT.709Коэффициенты матрицы : BT.709
АудиоИдентификатор : 2901 (0xB55)Идентификатор меню : 901 (0x385)Формат : MPEG AudioВерсия формата : Version 1Профиль формата : Layer 2Идентификатор кодека : 4Продолжительность : 43 м.Вид битрейта : ПостоянныйБитрейт : 224 Кбит/секКаналы : 2 каналаЧастота : 48,0 КГцМетод сжатия : С потерямиЗадержка видео : 56 мс.Размер потока : 70,5 Мбайт (2%)Язык : stdЯзык, дополнительно : Clean effects

Скриншоты

[Профиль] [ЛС]
Кто просматривает тему:

Форум Тема Автор Размер
1С (программы для бизнеса) 1С:Зарплата и управление персоналом 2.5.94.2 / 3.0.23.142 + обновления (x86+x64) [2010-2015 г.] [RUS] sergej644 1.41 GB
1С (программы для бизнеса) 1С:Управление предприятием ЖКХ 1.3 (x86+x64) [2016 г.] [RUS] sergej644 607 MB
1С (программы для бизнеса) 1С:Управление торговлей 10.3.33.1 / 11.1.10.180 + обновления (x86+x64) [2010-2015 г.] [RUS] sergej644 2.13 GB
Программы [Утилиты] Mobile control v2.3.0 - Управление плеером, отправка уведомлений на компьютер [Android 4.0, RUS + ENG] TorrentFilm 3 MB
Компьютерная литература (Программирование) Берндт Г., Каинка Б. - Измерение, управление и регулирование с помощью макросов VBA в Word и Excel [2008, PDF, RUS] TorrentFilm 44 MB
1С (программы для бизнеса) Видеоуроки по программе 1С: Зарплата и Управление Персоналом (2011-2014) WEBRip sergej644 1.2 GB
Разная литература Горяев Тимур - Шпаргалки для боссов. Жесткие и честные уроки управления, которые лучше выучить на чужом опыте (2016) FB2 достали все 15 MB
Компьютерная литература (Программирование) Дюгуров Д.В. - Управление контроллером домена. Упражнения и задачи [2012, PDF, RUS] TorrentFilm 812 KB
Показать сообщения:    

Текущее время: Сегодня 12:28

Часовой пояс: GMT



Вы не можете начинать темы
Вы не можете отвечать на сообщения
Вы не можете редактировать свои сообщения
Вы не можете удалять свои сообщения
Вы не можете голосовать в опросах
Вы не можете прикреплять файлы к сообщениям
Вы не можете скачивать файлы