Упоение властью / Комедия власти / L\'ivresse du pouvoir (Клод Шаброль / Claude Chabrol) [2006, Франция, Германия, драма, DVDRip] VO (Сибирский) + Sub Rus + Original Fre

 
Автор Сообщение

TorrentFilm ®

Пол:

Стаж: 2 года

Сообщений: 7741



Награды: Нет

Торрент-статистика

Создавать темы 23-Июл-2015 00:09

[Цитировать]

Упоение властью / Комедия власти / L'ivresse du pouvoir
Страна: Франция, Германия
Жанр: драма
Год выпуска: 2006
Продолжительность: 01:45:06
Перевод: Одноголосый закадровый - Сибирский (по субтитрам)
Cубтитры: русские (Lisok)
Оригинальная аудиодорожка: французский

Режиссер: Клод Шаброль / Claude Chabrol
В ролях: Изабель Юппер, Франсуа Берлеан, Патрик Брюэль, Мэрилин Канто, Робен Ренуччи, Тома Шаброль, Жан-Франсуа Бальмер, Пьер Вернье, Жак Бюде, Филипп Дюкло
Описание: Сценарий «Комедии власти» (оригинальное название «L'ivresse du pouvoir» – «Упоение властью») основан на реальных событиях – громком скандале вокруг французского нефтяного гиганта Elf Aquitaine. Героиня фильма, следователь Жанна Шарман Киллман (Изабель Юппер), рассматривает запутанное дело: президент крупной промышленной компании (Франсуа Берлеан) подозревается в хищениях на астрономическую сумму. С каждым новым шагом, предпринятым Жанной, ее власть над сильными мира сего растет, но частная жизнь следователя подвергается все большей опасности. Возможно ли упиваться ощущением власти, не боясь встретиться лицом к лицу с другой, более могущественной силой? И способен ли человек противостоять жажде власти?..
Качество видео: DVDRip
Формат видео: AVI
Видео: 704x384 (1.83:1), 25 fps, XviD MPEG-4 ~2092 kbps avg, 0.31 bit/pixel
Аудио: 48 kHz, AC3 Dolby Digital, 3/2 (L,C,R,l,r) + LFE ch, ~448 kbps - одноголосый
Аудио: 48 kHz, AC3 Dolby Digital, 3/2 (L,C,R,l,r) + LFE ch, ~448 kbps - оригинал

MediaInfo

Общее
Полное имя : H:\L'ivresse.du.pouvoir.2006.dvdrip_[2.18]_[teko]\L'ivresse.du.pouvoir.2006.dvdrip_[2.18].avi
Формат : AVI
Формат/Информация : Audio Video Interleave
Профиль формата : OpenDML
Размер файла : 2,20 Гбайт
Продолжительность : 1 ч. 45 м.
Общий поток : 2995 Кбит/сек
Программа кодирования : VirtualDubMod 1.5.10.3 | www.virtualdub-fr.org || (build 2550/release)
Библиотека кодирования : VirtualDubMod build 2550/release
Видео
Идентификатор : 0
Формат : MPEG-4 Visual
Профиль формата : Advanced Simple@L5
Параметр BVOP формата : 1
Параметр QPel формата : Нет
Параметр GMC формата : Без точки перехода
Параметр матрицы формата : Выборочная
Идентификатор кодека : XVID
Идентификатор кодека/Подсказка : XviD
Продолжительность : 1 ч. 45 м.
Битрейт : 2081 Кбит/сек
Ширина : 704 пикселя
Высота : 384 пикселя
Соотношение сторон : 1,85:1
Частота кадров : 25,000 кадров/сек
Цветовое пространство : YUV
Субдискретизация насыщенности : 4:2:0
Битовая глубина : 8 бит
Тип развёртки : Прогрессивная
Метод сжатия : С потерями
Бит/(Пиксели*Кадры) : 0.308
Размер потока : 1,53 Гбайт (69%)
Библиотека кодирования : XviD 73
Аудио #1
Идентификатор : 1
Формат : AC-3
Формат/Информация : Audio Coding 3
Расширение режима : CM (complete main)
Параметр Endianness формата : Big
Идентификатор кодека : 2000
Продолжительность : 1 ч. 45 м.
Вид битрейта : Постоянный
Битрейт : 448 Кбит/сек
Каналы : 6 каналов
Расположение каналов : Front: L C R, Side: L R, LFE
Частота : 48,0 КГц
Битовая глубина : 16 бит
Метод сжатия : С потерями
Размер потока : 337 Мбайт (15%)
Выравнивание : Разделение по промежуткам
Продолжительность промежутка : 40 мс. (1,00 видеокадр)
Время предзагрузки промежутка : 500 мс.
Аудио #2
Идентификатор : 2
Формат : AC-3
Формат/Информация : Audio Coding 3
Расширение режима : CM (complete main)
Параметр Endianness формата : Big
Идентификатор кодека : 2000
Продолжительность : 1 ч. 45 м.
Вид битрейта : Постоянный
Битрейт : 448 Кбит/сек
Каналы : 6 каналов
Расположение каналов : Front: L C R, Side: L R, LFE
Частота : 48,0 КГц
Битовая глубина : 16 бит
Метод сжатия : С потерями
Размер потока : 337 Мбайт (15%)
Выравнивание : Разделение по промежуткам
Продолжительность промежутка : 40 мс. (1,00 видеокадр)
Время предзагрузки промежутка : 500 мс.

Скриншоты


-
-
[Профиль] [ЛС]

Создавать темы 06-Авг-2015 22:23 (спустя 14 дней)

Топик был перенесен из форума Фильмы до 2014 года в форум Фильмы до 2012 года
sergej644
 
Кто просматривает тему:

Показать сообщения:    

Текущее время: Сегодня 20:44

Часовой пояс: GMT



Вы не можете начинать темы
Вы не можете отвечать на сообщения
Вы не можете редактировать свои сообщения
Вы не можете удалять свои сообщения
Вы не можете голосовать в опросах
Вы не можете прикреплять файлы к сообщениям
Вы не можете скачивать файлы