Упакованные (Петр Гладилин) [2013, Россия, Комедия, приключения, HDTV 1080i]

 
Автор Сообщение

TorrentFilm ®

Пол:

Стаж: 2 года

Сообщений: 7741



Награды: Нет

Торрент-статистика

Создавать темы 17-Дек-2014 02:15

[Цитировать]

Упакованные
Страна: Россия
Студия: Продюсерская кинокомпания "Киномир"
Жанр: Комедия, приключения
Год выпуска: 2013
Продолжительность: 01:25:11
Перевод: Не требуется
Cубтитры: нет
Режиссер: Петр Гладилин
В ролях: Камиль Ларин, Татьяна Яковенко, Иван Жидков, Елена Кутырева, Иван Кокорин, Иван Замотаев, Елена Аросьева
Описание: Уж если день не задался, готовься к крупным проблемам. А если разругался с любимой женой, ни в коем случае не садись за руль. Обязательно будут неприятности. Но крутой бизнесмен Сергей Камаев сел за руль и обеспечил проблемы себе, своей жене Марго, ее бывшему любовнику Ивану и даже Анечке, молодой жене Ивана. Судьба-злодейка распорядилась так, что они все вместе ночью окажутся в одной машине, да еще и в шикарном кабриолете, упакованные в целлофан во весь рост, и их будут преследовать два отвратительных типа на ржавом пикапе.
Сэмпл
Тип релиза: HDTV 1080i
Контейнер: TS
Видео: 1920х1080 (16:9), 25 fps, AVC MPEG-4 (x264), High@L4.0 12,2 Мбит/с , 0.235 bit/pixel
Аудио: 48 kHz, АС3, 6 ch, 448 kbps avg

MediaInfo

Общее
Идентификатор : 1 (0x1)
Полное имя : D:\Video\Upakovannye.2013.HDTV.(1080i).MediaClub.ts
Формат : MPEG-TS
Размер файла : 7,92 Гбайт
Продолжительность : 1 ч. 25 м.
Режим общего битрейта : Переменный
Общий поток : 13,3 Мбит/сек
Видео
Идентификатор : 3551 (0xDDF)
Идентификатор меню : 1 (0x1)
Формат : AVC
Формат/Информация : Advanced Video Codec
Профиль формата : Main@L4.0
Параметр CABAC формата : Да
Параметр ReFrames формата : 3 кадра
Идентификатор кодека : 27
Продолжительность : 1 ч. 25 м.
Битрейт : 12,2 Мбит/сек
Ширина : 1920 пикселей
Высота : 1080 пикселей
Соотношение сторон : 16:9
Частота кадров : 25,000 кадров/сек
Стандарт вещания : Component
Цветовое пространство : YUV
Субдискретизация насыщенности : 4:2:0
Битовая глубина : 8 бит
Тип развёртки : Чересстрочная
Порядок развёртки : Верхнее поле первое
Бит/(Пиксели*Кадры) : 0.235
Размер потока : 7,26 Гбайт (92%)
Основные цвета : BT.709
Характеристики трансфера : BT.709
Коэффициенты матрицы : BT.709
Аудио
Идентификатор : 3553 (0xDE1)
Идентификатор меню : 1 (0x1)
Формат : AC-3
Формат/Информация : Audio Coding 3
Расширение режима : CM (complete main)
Параметр Endianness формата : Big
Идентификатор кодека : 6
Продолжительность : 1 ч. 25 м.
Вид битрейта : Постоянный
Битрейт : 448 Кбит/сек
Каналы : 6 каналов
Расположение каналов : Front: L C R, Side: L R, LFE
Частота : 48,0 КГц
Битовая глубина : 16 бит
Метод сжатия : С потерями
Размер потока : 273 Мбайт (3%)
Язык : Russian

Скриншоты

[Профиль] [ЛС]
Кто просматривает тему:

Показать сообщения:    

Текущее время: Сегодня 10:29

Часовой пояс: GMT



Вы не можете начинать темы
Вы не можете отвечать на сообщения
Вы не можете редактировать свои сообщения
Вы не можете удалять свои сообщения
Вы не можете голосовать в опросах
Вы не можете прикреплять файлы к сообщениям
Вы не можете скачивать файлы