Универ. Новая общага [09x01-20 серии] (2015) SATRip

 
Автор Сообщение

достали все ®

Пол:

Стаж: 2 года 3 месяца

Сообщений: 6780



Награды: 12 (Подробнее)

Mega Releaser 2 (Количество: 1) Mega Releaser 3 (Количество: 1) Top Releaser 4 (Количество: 1)
Торрент-статистика

Создавать темы 12-Окт-2015 14:31

[Цитировать]

Информация о фильме
Название: Универ. Новая общага
Год выхода: 2015
Жанр: Комедия
Режиссер: Пётр Точилин
В ролях: Арарат Кещян, Станислав Ярушин, Анна Кузина, Настасья Самбурская, Анна Хилькевич, Ашот Кещян, Елена Валюшкина
О фильме:
Маша решает признаться маме Вали, что они встречаются. Антону и Кристине надоело, что их личная жизнь зависит от расписания ребят в блоке. Они решают, что пора жить отдельно. Яна узнает, что Иванов уже неделю берет у нее деньги на ремонт деталей, которых в машине даже не существует.
Страна: Россия
Студия: Comedy club production
Продолжительность: 00:25:00
Перевод: Не требуется
Файл
Кодек: XviD
Качество: SATRip
Видео: 720x400 (1.80:1), 25 fps, XviD build 50 ~1799 kbps avg, 0.25 bit/pixel
Звук: MPEG Layer 3, 48 kHz, 2 ch, ~128.00 kbps avg

Скриншоты

MediaInfo

Общее
Полное имя : D:Univer.Nov.Obch.9Univer.Nov.Obch.9.01.SATRip.avi
Формат : AVI
Формат/Информация : Audio Video Interleave
Размер файла : 333 Мбайт
Продолжительность : 24 м.
Общий поток : 1931 Кбит/сек
Программа кодирования : VirtualDubMod 1.5.10.3 | www.virtualdub-fr.org || (build 2550/release)
Библиотека кодирования : VirtualDub build 29808/release
Видео
Идентификатор : 0
Формат : MPEG-4 Visual
Профиль формата : Advanced Simple@L5
Параметр BVOP формата : 2
Параметр QPel формата : Нет
Параметр GMC формата : Без точки перехода
Параметр матрицы формата : Default (H.263)
Идентификатор кодека : XVID
Идентификатор кодека/Подсказка : XviD
Продолжительность : 24 м.
Битрейт : 1793 Кбит/сек
Ширина : 720 пикселей
Высота : 400 пикселей
Соотношение сторон : 16:9
Частота кадров : 25,000 кадров/сек
Цветовое пространство : YUV
Субдискретизация насыщенности : 4:2:0
Битовая глубина : 8 бит
Тип развёртки : Прогрессивная
Метод сжатия : С потерями
Бит/(Пиксели*Кадры) : 0.249
Размер потока : 309 Мбайт (93%)
Библиотека кодирования : XviD 1.2.1 (UTC 2008-12-04)
Аудио
Идентификатор : 1
Формат : MPEG Audio
Версия формата : Version 1
Профиль формата : Layer 3
Идентификатор кодека : 55
Идентификатор кодека/Подсказка : MP3
Продолжительность : 24 м.
Вид битрейта : Постоянный
Битрейт : 128 Кбит/сек
Каналы : 2 канала
Частота : 48,0 КГц
Метод сжатия : С потерями
Размер потока : 22,1 Мбайт (7%)
Выравнивание : Соединение по промежуткам
Продолжительность промежутка : 40 мс. (1,00 видеокадр)
Время предзагрузки промежутка : 504 мс.
Библиотека кодирования : LAME3.99r
Настройки программы : -m s -V 4 -q 2 -lowpass 17 -b 128
[Профиль] [ЛС]
Показать сообщения:    

Текущее время: Сегодня 04:02

Часовой пояс: GMT



Вы не можете начинать темы
Вы не можете отвечать на сообщения
Вы не можете редактировать свои сообщения
Вы не можете удалять свои сообщения
Вы не можете голосовать в опросах
Вы не можете прикреплять файлы к сообщениям
Вы не можете скачивать файлы