Универсальный солдат 4 в 3Д / Universal Soldier: Day of Reckoning 3D (Джон Хайамс / John Hyams) [2012, Боевик, Фантастика, Триллер, BDrip, 1080p] OverUnder / Вертикальная стереопара

 
Автор Сообщение

TorrentFilm ®

Пол:

Стаж: 2 года

Сообщений: 7741



Награды: Нет

Торрент-статистика

Создавать темы 02-Янв-2016 00:02

[Цитировать]

Универсальный солдат 4 / Universal Soldier: Day of Reckoning
Год выпуска: 2012
Страна: США
Студия: Foresight Unlimited, Signature Pictures
Жанр: Боевик, Фантастика, Триллер
Продолжительность: 01:53:37
Перевод: Профессиональный (дублированный)
Русские субтитры: нет
Режиссер на русском: Джон Хайамс
Режиссер на английском: John Hyams
В ролях: Жан-Клод Ван Дамм, Скотт Эдкинс, Андрей Орловский, Дольф Лундгрен, Кристофер Ван Варенберг, Джеймс Роулингс, Мария Боннер, Сигал Дайэмант, Рас Блэквелл, Дэвид Дженсен
Роли озвучивали: Александр Рахленко, Илья Исаев, Михаил Георгиу, Ирина Киреева, Никита Прозоровский
Описание: Настоящее время. Программа «Unisol» по-прежнему актуальна и снова введена в эксплуатацию. Давним и непримиримым врагам времён Вьетнамской войны Эндрю Скотту и Люку Деверо суждено встретиться в очередной раз, дабы продолжить своё извечное противостояние и нескончаемую борьбу. Однако, новые опасности и трудности заставляют двух солдат на время объединиться пред лицом общей неприятности, что весьма ненадолго. Ясно одно: кровавый исход и брутальный финал неизбежен…
Сэмпл: http://www.sendspace.com/file/ycn776
Качество: BDrip
Контейнер: MKV
Формат 3D: OverUnder / Вертикальная стереопара
Порядок ракурсов: левый ракурс первый
Видео кодек: x264
Аудио кодек: AC3
Видео: AVC / 23,976 fps / 1920х1632 / 15.8 Mbps
Аудио: Русский / AC3 / 48 KHz / 5.1 ch / 448 Kbps
Аудио 2: Английский / AC3 / 48 KHz / 5.1 ch / 640 Kbps
ВНИМАНИЕ ! На встроенных ТВ-плейерах работать не будет!!!
Железные плееры на которых воспроизводятся полные стереопары:Popcorn C-200 , Dune HD Smart D1 , Dune HD DUO , Dune HD Smart H1 , Dune HD Smart B1 , Dune HD Max.

MediaInfo

General
Unique ID : 199876222498808767315358668961506630315 (0x965EC29D0045E35496DD73B51BFB9AAB)
Complete name : E:\видео\Universal Soldier Day of Reckoning.mkv
Format : Matroska
Format version : Version 2
File size : 13.6 GiB
Duration : 1h 53mn
Overall bit rate : 17.2 Mbps
Encoded date : UTC 2013-01-18 13:30:17
Writing application : mkvmerge v3.4.0 ('Rapunzel') сборка от May 15 2010 09:38:20
Writing library : libebml v0.8.0 + libmatroska v0.9.0
Video
ID : 1
Format : AVC
Format/Info : Advanced Video Codec
Format profile : High@L5.0
Format settings, CABAC : Yes
Format settings, ReFrames : 4 frames
Codec ID : V_MPEG4/ISO/AVC
Duration : 1h 53mn
Bit rate : 15.8 Mbps
Width : 1 920 pixels
Height : 1 632 pixels
Display aspect ratio : 1.176
Frame rate mode : Constant
Frame rate : 23.976 fps
Color space : YUV
Chroma subsampling : 4:2:0
Bit depth : 8 bits
Scan type : Progressive
Bits/(Pixel*Frame) : 0.210
Stream size : 12.5 GiB (92%)
Title : Rip by SeRoGa00
Writing library : x264 core 128 r2216kMod 198a7ea
Encoding settings : cabac=1 / ref=4 / deblock=1:-3:-3 / analyse=0x3:0x113 / me=umh / subme=9 / psy=1 / fade_compensate=0.00 / psy_rd=1.00:0.15 / mixed_ref=1 / me_range=16 / chroma_me=1 / trellis=2 / 8x8dct=1 / cqm=0 / deadzone=21,11 / fast_pskip=1 / chroma_qp_offset=-3 / threads=6 / lookahead_threads=1 / sliced_threads=0 / nr=0 / decimate=1 / interlaced=0 / bluray_compat=0 / constrained_intra=0 / bframes=6 / b_pyramid=2 / b_adapt=2 / b_bias=0 / direct=3 / weightb=1 / open_gop=0 / weightp=2 / keyint=250 / keyint_min=23 / scenecut=40 / intra_refresh=0 / rc_lookahead=60 / rc=crf / mbtree=1 / crf=18.0000 / qcomp=0.60 / qpmin=10 / qpmax=69 / qpstep=4 / vbv_maxrate=40000 / vbv_bufsize=40000 / crf_max=0.0 / nal_hrd=none / ip_ratio=1.40 / aq=1:1.00
Language : English
Default : Yes
Forced : No
Audio #1
ID : 2
Format : AC-3
Format/Info : Audio Coding 3
Mode extension : CM (complete main)
Format settings, Endianness : Big
Codec ID : A_AC3
Duration : 1h 53mn
Bit rate mode : Constant
Bit rate : 448 Kbps
Channel(s) : 6 channels
Channel positions : Front: L C R, Side: L R, LFE
Sampling rate : 48.0 KHz
Bit depth : 16 bits
Compression mode : Lossy
Stream size : 364 MiB (3%)
Language : Russian
Default : Yes
Forced : No
Audio #2
ID : 3
Format : AC-3
Format/Info : Audio Coding 3
Mode extension : CM (complete main)
Format settings, Endianness : Big
Codec ID : A_AC3
Duration : 1h 53mn
Bit rate mode : Constant
Bit rate : 640 Kbps
Channel(s) : 6 channels
Channel positions : Front: L C R, Side: L R, LFE
Sampling rate : 48.0 KHz
Bit depth : 16 bits
Compression mode : Lossy
Stream size : 520 MiB (4%)
Language : English
Default : No
Forced : No

Скриншоты


[Профиль] [ЛС]
Кто просматривает тему:

Форум Тема Автор Размер
Da Vinci Learning Da Vinci Learning: Сила знания. Великие университеты Европы / The Power of Knowledge - Europe's Great Universities [серии 1-6 из 6] (Norbert Kron & Matthias Hoferichter, Galina Breitkreuz,... skorpionN 4.22 GB
Cистемные Утилиты Re-Loader v.1.2 FINAL by R@1n - Универсальный активатор (17/02/2015) MOTrOSS 326 MB
Cистемные Утилиты Re-Loader v.1.3 Alfa 6 by R@1n - Универсальный активатор MOTrOSS 332 MB
LiveCD System USB-Flash 10 v4.3 (Универсальное создание USB-накопителя) - Ubuntu x86, Windows XP SP3 x86, Windows 7 SP1 x86/x64, Windows 8.1 Update x86/x64, Драйвер-Паки для всех Windows (от 07.05.2015) MOTrOSS 31.19 GB
Windows XP Windows XP Pro SP3 (x86) (Rus) by Viktor Kisel - Универсальный образ системного раздела для восстановления на любой компьютер. nickson-82 2.83 GB
Кино СССР За витриной универмага (Самсон Самсонов) [1955, комедия, DVDRip] sergej644 1.37 GB
Научная и техническая литература Исаева Е. Л., Куликова В. Н., Аристамбекова Н. Е. - Универсальный энциклопедический справочник (2015) FB2 достали все 3 MB
Apple, iOS, iPad, iPhone Корпорация монстров / Monsters, Inc. / Университет монстров / Monsters University (2001-2013) BDRip 720p | iPad sergej644 3.31 GB
Показать сообщения:    

Текущее время: Сегодня 14:23

Часовой пояс: GMT



Вы не можете начинать темы
Вы не можете отвечать на сообщения
Вы не можете редактировать свои сообщения
Вы не можете удалять свои сообщения
Вы не можете голосовать в опросах
Вы не можете прикреплять файлы к сообщениям
Вы не можете скачивать файлы