Универсальный солдат 2: Возвращение / Universal Soldier: The Return (Мик Роджерс / Mic Rodgers) [1999 г., Фантастика, боевик, BDRip 720p] DUB

 
Автор Сообщение

AleksSin ®

Пол:

Стаж: 6 лет

Сообщений: 218



Награды: 4 (Подробнее)

Mega Seeder 4 (Количество: 1) Mega Seeder 1 (Количество: 1) Mega Seeder 2 (Количество: 1)
Торрент-статистика

Создавать темы 03-Окт-2015 19:13

[Цитировать]

Универсальный солдат 2: Возвращение / Universal Soldier: The Return«Prepare to become obsolete» Год выпуска: 1999
Страна: США
Жанр: Фантастика, боевик
Продолжительность: 01:22:58
Перевод: Профессиональный (полное дублирование) (лицензия Blu-Ray CEE)
Режиссер: Мик Роджерс / Mic Rodgers
В ролях: Жан-Клод Ван Дамм, Майкл Джей Уайт, Хайди Шанц, Ксандер Беркли, Джастин Лазард, Киана Том, Дэниэл Фон Бэрген, Джеймс Блэк, Керис Пейдж, Билл Голдберг
Описание: Универсальный солдат - совершенная кибернетическая машина для убийства, неустрашимый воин, который не ведает боли и страха. Когда-то Люк Деверо был одним из них. Теперь в качестве технического эксперта он работает над созданием новых непобедимых роботов в человеческом облике, киборгов следующего поколения. Секретный проект подходит к своей кульминационной точке, но в этот момент суперкомпьютер, контролирующий целую армию универсальных солдат, выходит из повиновения. Он находит себе неуязвимое тело и возглавляет легион идеальных убийц. Совершенное оружие, созданное правительством для защиты людей, оборачивается против человечества. И никому не дано знать, что происходит внутри неуправляемой машины. Кроме того, кто уже однажды был ею...

Качество: BDRip 720p Исходник: Blu-ray
Формат: MKV
Видео кодек: H.264
Аудио кодек: AC3
Видео: MPEG-4 AVC, 8856 Кбит/с, 1280x692 (1,85:1), 23,976 кадра/сек
Аудио 1: AC3, 6 каналов, 640 Кбит/с, 48,0 КГц, 16 бит (Русский)
Аудио 2: AC3, 6 каналов, 640 Кбит/с, 48,0 КГц, 16 бит (Английский)
Субтитры: Русские (полные, форсированные), Английские (2 вида) (.srt*)
Навигация по главам: Есть

MediaInfo

Общее
Уникальный идентификатор : 173132609806573702067036691642188256733 (0x824020B4B981F60D93A8895601C755DD)
Полное имя : S:ФильмыУниверсальный солдат 2. Возвращение. BDRip 720p (AleksSin).mkv
Формат : Matroska
Версия формата : Version 4 / Version 2
Размер файла : 5,99 Гбайт
Продолжительность : 1 ч. 22 м.
Общий поток : 10,3 Мбит/сек
Дата кодирования : UTC 2015-10-03 16:01:49
Программа кодирования : mkvmerge v8.1.0 ('Psychedelic Postcard') 32bit
Библиотека кодирования : libebml v1.3.1 + libmatroska v1.4.2
DURATION : 01:14:44.312000000
NUMBER_OF_FRAMES : 656
NUMBER_OF_BYTES : 23102
_STATISTICS_WRITING_APP : mkvmerge v8.1.0 ('Psychedelic Postcard') 32bit
_STATISTICS_WRITING_DATE_UTC : 2015-10-03 16:01:49
_STATISTICS_TAGS : BPS DURATION NUMBER_OF_FRAMES NUMBER_OF_BYTES
Видео
Идентификатор : 1
Формат : AVC
Формат/Информация : Advanced Video Codec
Профиль формата : High@L4.1
Параметр CABAC формата : Да
Параметр ReFrames формата : 9 кадров
Идентификатор кодека : V_MPEG4/ISO/AVC
Продолжительность : 1 ч. 22 м.
Битрейт : 8856 Кбит/сек
Ширина : 1280 пикселей
Высота : 692 пикселя
Соотношение сторон : 1,85:1
Режим частоты кадров : Постоянный
Частота кадров : 23,976 кадра/сек
Цветовое пространство : YUV
Субдискретизация насыщенности : 4:2:0
Битовая глубина : 8 бит
Тип развёртки : Прогрессивная
Бит/(Пиксели*Кадры) : 0.417
Размер потока : 5,13 Гбайт (86%)
Библиотека кодирования : x264 core 146 r2538 121396c
Настройки программы : cabac=1 / ref=9 / deblock=1:-3:-3 / analyse=0x3:0x133 / me=umh / subme=11 / psy=1 / psy_rd=1.00:0.00 / mixed_ref=1 / me_range=32 / chroma_me=1 / trellis=2 / 8x8dct=1 / cqm=0 / deadzone=21,11 / fast_pskip=1 / chroma_qp_offset=-2 / threads=12 / lookahead_threads=2 / sliced_threads=0 / nr=0 / decimate=1 / interlaced=0 / bluray_compat=0 / constrained_intra=0 / bframes=8 / b_pyramid=2 / b_adapt=2 / b_bias=0 / direct=1 / weightb=1 / open_gop=0 / weightp=2 / keyint=250 / keyint_min=23 / scenecut=40 / intra_refresh=0 / rc=crf / mbtree=0 / crf=18.0 / qcomp=0.60 / qpmin=0 / qpmax=69 / qpstep=4 / ip_ratio=1.40 / pb_ratio=1.30 / aq=1:1.00
Default : Да
Forced : Нет
Аудио #1
Идентификатор : 2
Формат : AC-3
Формат/Информация : Audio Coding 3
Расширение режима : CM (complete main)
Параметр Endianness формата : Big
Идентификатор кодека : A_AC3
Продолжительность : 1 ч. 22 м.
Вид битрейта : Постоянный
Битрейт : 640 Кбит/сек
Каналы : 6 каналов
Расположение каналов : Front: L C R, Side: L R, LFE
Частота : 48,0 КГц
Битовая глубина : 16 бит
Метод сжатия : С потерями
Размер потока : 380 Мбайт (6%)
Default : Да
Forced : Нет
Аудио #2
Идентификатор : 3
Формат : AC-3
Формат/Информация : Audio Coding 3
Расширение режима : CM (complete main)
Параметр Endianness формата : Big
Идентификатор кодека : A_AC3
Продолжительность : 1 ч. 22 м.
Вид битрейта : Постоянный
Битрейт : 640 Кбит/сек
Каналы : 6 каналов
Расположение каналов : Front: L C R, Side: L R, LFE
Частота : 48,0 КГц
Битовая глубина : 16 бит
Метод сжатия : С потерями
Размер потока : 380 Мбайт (6%)
Default : Нет
Forced : Нет
Текст #1
Идентификатор : 4
Формат : UTF-8
Идентификатор кодека : S_TEXT/UTF8
Идентификатор кодека/Информация : UTF-8 Plain Text
Default : Да
Forced : Нет
Текст #2
Идентификатор : 5
Формат : UTF-8
Идентификатор кодека : S_TEXT/UTF8
Идентификатор кодека/Информация : UTF-8 Plain Text
Default : Нет
Forced : Нет
Текст #3
Идентификатор : 6
Формат : UTF-8
Идентификатор кодека : S_TEXT/UTF8
Идентификатор кодека/Информация : UTF-8 Plain Text
Default : Нет
Forced : Нет
Текст #4
Идентификатор : 7
Формат : UTF-8
Идентификатор кодека : S_TEXT/UTF8
Идентификатор кодека/Информация : UTF-8 Plain Text
Default : Нет
Forced : Нет
Меню
00:00:00.000 : en:
00:05:00.000 : en:
00:10:00.000 : en:
00:15:00.000 : en:
00:20:00.000 : en:
00:25:00.000 : en:
00:30:00.000 : en:
00:35:00.000 : en:
00:40:00.000 : en:
00:45:00.000 : en:
00:50:00.000 : en:
00:55:00.000 : en:
01:00:00.000 : en:

Скриншоты

[Профиль] [ЛС]
Кто просматривает тему:

Форум Тема Автор Размер
Da Vinci Learning Da Vinci Learning: Сила знания. Великие университеты Европы / The Power of Knowledge - Europe's Great Universities [серии 1-6 из 6] (Norbert Kron & Matthias Hoferichter, Galina Breitkreuz,... skorpionN 4.22 GB
Cистемные Утилиты Re-Loader v.1.2 FINAL by R@1n - Универсальный активатор (17/02/2015) MOTrOSS 326 MB
Cистемные Утилиты Re-Loader v.1.3 Alfa 6 by R@1n - Универсальный активатор MOTrOSS 332 MB
LiveCD System USB-Flash 10 v4.3 (Универсальное создание USB-накопителя) - Ubuntu x86, Windows XP SP3 x86, Windows 7 SP1 x86/x64, Windows 8.1 Update x86/x64, Драйвер-Паки для всех Windows (от 07.05.2015) MOTrOSS 31.19 GB
Windows XP Windows XP Pro SP3 (x86) (Rus) by Viktor Kisel - Универсальный образ системного раздела для восстановления на любой компьютер. nickson-82 2.83 GB
Кино СССР За витриной универмага (Самсон Самсонов) [1955, комедия, DVDRip] sergej644 1.37 GB
Научная и техническая литература Исаева Е. Л., Куликова В. Н., Аристамбекова Н. Е. - Универсальный энциклопедический справочник (2015) FB2 достали все 3 MB
Apple, iOS, iPad, iPhone Корпорация монстров / Monsters, Inc. / Университет монстров / Monsters University (2001-2013) BDRip 720p | iPad sergej644 3.31 GB
Показать сообщения:    

Текущее время: Сегодня 11:02

Часовой пояс: GMT



Вы не можете начинать темы
Вы не можете отвечать на сообщения
Вы не можете редактировать свои сообщения
Вы не можете удалять свои сообщения
Вы не можете голосовать в опросах
Вы не можете прикреплять файлы к сообщениям
Вы не можете скачивать файлы