Универсальный солдат / Universal Soldier (1992) BDRip 1080p | D, P, A | EUR Transfer

 
Автор Сообщение

sergej644 ®

Пол:

Стаж: 4 года 11 месяцев

Сообщений: 6045

Откуда: Soviet Union



Награды: Нет

Торрент-статистика

Создавать темы 26-Фев-2015 20:35

[Цитировать]

Информация о фильме
Название: Универсальный солдат
Оригинальное: Universal Soldier
Год выхода: 1992
Выпущено: Carolco Pictures Inc., Centropolis Film Productions, IndieProd Company Productions, Studio Canal
Страна: США
Жанр: Фантастика, боевик, драма
Продолжительность: 01:43:47
Перевод: Профессиональный дублированный, многоголосый, авторский
Режиссер: Роланд Эммерих
В ролях: Жан-Клод Ван Дамм, Дольф Лундгрен, Элли Уокер, Эд О’Росс, Джерри Орбак, Леон Риппи, Тико Уэллс, Ральф Мёллер, Роберт Требор, Джин Дэвис, Дрю Снайдер, Томми Листер, Саймон Ри, Эрик Норрис, Майкл Уинтер, Джозеф Мэлоун, Рэнс Ховард, Лилиан Шовин, Джоэнн Барон, Люпе Онтиверос, Джек Мур, Джон Стори, Брэдфорд Бэнкрофт, Томас Розалес мл., Трини Трэн, Тай Тхай, Рэйчел Вагнер, Брэндон Лэмдин, Нед Беллами, Пол Рачовски, Дэниэл Деморест, Тэннер Гилл, Эдди Браун, Уолтер Роблз, Джофри С. Браун, Донна Харди, Леон Делани, Джордж Фишер, Дэвид Эфрон, Мирон Л. Лапка
-Сюжет фильма
Вьетнам, 1969 год, первая стычка двух американских солдат — Люка и Скотта: Люк не может стрелять в безоружных людей, Скотт же готов убивать и убивать с нечеловечески-яростной жестокостью, о которой свидетельствует ожерелье из ушей, отрезанных им у вьетнамцев. Спустя годы Люк и Скотт вновь оказываются в одном отряде — спецподразделении «универсальных солдат», которых бросают на выполнение самых опасных заданий (например, на ликвидацию террористов). «Универсального солдата» можно попытаться убить, но он будет подниматься вновь и вновь, и если понадобится, то ученые, работающие над сверхсекретным военным проектом, в специальной лаборатории займутся оживлением серьезно пострадавшего «универсала». Однако, даже зная об этом, Скотт с упорством маньяка будет преследовать Люка, чтобы сойтись с ним в решающем поединке не на жизнь, а на смерть...-Файл
Кодек: x264
Формат: MKV
Качество: BDRip 1080p (Источник: HDClub / Universal Soldier (1992) Blu-ray EUR 1080p AVC DTS-HD 2.0)
Видео: MPEG-4 AVC 1920x828 pix, 23.976 fps, 13060 kbps, 0.343 Bits/Pixel
Аудио I: Dolby Digital 2.0 ch, 48 kHz, 192 kbps (DUB "Хлопушка")
Аудио II: Dolby Digital 5.1 ch, 48 kHz, 384 kbps (MVO "Twister")
Аудио III: Dolby Digital 5.1 ch, 48 kHz, 448 kbps (MVO "AuraFilm")
Аудио IV: Dolby Digital 2.0 ch, 48 kHz, 192 kbps (MVO "Lazer Video")
Аудио V: Dolby Digital 2.0 ch, 48 kHz, 192 kbps (MVO "СТС")
Аудио VI: Dolby Digital 5.1 ch, 48 kHz, 384 kbps (AVO "А. Гаврилов")
Аудио VII: Dolby Digital 5.1 ch, 48 kHz, 448 kbps (AVO "В. Горчаков")
Аудио VIII: Dolby Digital 5.1 ch, 48 kHz, 640 kbps (ENG "Original")
Субтитры: SRT Русские (Blu-ray), Английские (SDH)
Меню: Сохранены оригинальные чаптеры Blu-ray

MI & x264

x264 [info]: frame I:1062 Avg QP:16.76 size:227076
x264 [info]: frame P:29980 Avg QP:18.93 size:106817
x264 [info]: frame B:118249 Avg QP:21.09 size: 56801
x264 [info]: consecutive B-frames: 1.6% 1.6% 6.8% 9.9% 17.0% 55.6% 5.8% 1.9%-Общее
Уникальный идентификатор : 215700153362158915668999600269190733480 (0xA24656A3CD249FB08BA5A9BB3F4F9EA8)
Формат : Matroska
Версия формата : Version 2
Размер файла : 11,6 Гбайт
Продолжительность : 1 ч. 43 м.
Общий поток : 15,9 Мбит/сек
Название фильма : Универсальный солдат (1992) BDRip (1080p)
Дата кодирования : UTC 2015-02-15 07:45:51
Программа кодирования : mkvmerge v5.8.0 ('No Sleep / Pillow') built on Sep 2 2012 15:37:04
Библиотека кодирования : libebml v1.2.3 + libmatroska v1.3.0
Видео
Идентификатор : 1
Формат : AVC
Формат/Информация : Advanced Video Codec
Профиль формата : High@L4.1
Параметр CABAC формата : Да
Параметр ReFrames формата : 5 кадров
Идентификатор кодека : V_MPEG4/ISO/AVC
Продолжительность : 1 ч. 43 м.
Битрейт : 13,1 Мбит/сек
Ширина : 1920 пикселей
Высота : 828 пикселей
Соотношение сторон : 2,35:1
Режим частоты кадров : Постоянный
Частота кадров : 23,976 кадра/сек
Цветовое пространство : YUV
Субдискретизация насыщенности : 4:2:0
Битовая глубина : 8 бит
Тип развёртки : Прогрессивная
Бит/(Пиксели*Кадры) : 0.343
Размер потока : 9,23 Гбайт (80%)
Заголовок : Release by Alex260680
Библиотека кодирования : x264 core 144 r2525 40bb568
Настройки программы : cabac=1 / ref=5 / deblock=1:-3:-3 / analyse=0x3:0x133 / me=umh / subme=11 / psy=1 / psy_rd=1.20:0.00 / mixed_ref=1 / me_range=48 / chroma_me=1 / trellis=2 / 8x8dct=1 / cqm=0 / deadzone=21,11 / fast_pskip=0 / chroma_qp_offset=-2 / threads=6 / lookahead_threads=1 / sliced_threads=0 / nr=0 / decimate=0 / interlaced=0 / bluray_compat=0 / constrained_intra=0 / bframes=7 / b_pyramid=2 / b_adapt=2 / b_bias=0 / direct=3 / weightb=1 / open_gop=0 / weightp=2 / keyint=240 / keyint_min=23 / scenecut=40 / intra_refresh=0 / rc=full2pass / mbtree=0 / bitrate=13060 / ratetol=1.0 / qcomp=0.60 / qpmin=0 / qpmax=69 / qpstep=4 / cplxblur=20.0 / qblur=0.5 / ip_ratio=1.40 / pb_ratio=1.30 / aq=1:0.80
Язык : English
Default : Да
Forced : Нет
Аудио #1
Идентификатор : 2
Формат : AC-3
Формат/Информация : Audio Coding 3
Расширение режима : CM (complete main)
Параметр Endianness формата : Big
Идентификатор кодека : A_AC3
Продолжительность : 1 ч. 43 м.
Вид битрейта : Постоянный
Битрейт : 192 Кбит/сек
Каналы : 2 канала
Расположение каналов : Front: L R
Частота : 48,0 КГц
Битовая глубина : 16 бит
Метод сжатия : С потерями
Размер потока : 143 Мбайт (1%)
Заголовок : DUB (Хлопушка)
Язык : Russian
Default : Да
Forced : Нет
Аудио #2
Идентификатор : 3
Формат : AC-3
Формат/Информация : Audio Coding 3
Расширение режима : CM (complete main)
Параметр Endianness формата : Big
Идентификатор кодека : A_AC3
Продолжительность : 1 ч. 43 м.
Вид битрейта : Постоянный
Битрейт : 384 Кбит/сек
Каналы : 6 каналов
Расположение каналов : Front: L C R, Side: L R, LFE
Частота : 48,0 КГц
Битовая глубина : 16 бит
Метод сжатия : С потерями
Размер потока : 285 Мбайт (2%)
Заголовок : MVO (Twister)
Язык : Russian
Default : Нет
Forced : Нет
Аудио #3
Идентификатор : 4
Формат : AC-3
Формат/Информация : Audio Coding 3
Расширение режима : CM (complete main)
Параметр Endianness формата : Big
Идентификатор кодека : A_AC3
Продолжительность : 1 ч. 43 м.
Вид битрейта : Постоянный
Битрейт : 448 Кбит/сек
Каналы : 6 каналов
Расположение каналов : Front: L C R, Side: L R, LFE
Частота : 48,0 КГц
Битовая глубина : 16 бит
Метод сжатия : С потерями
Размер потока : 333 Мбайт (3%)
Заголовок : MVO (AuraFilm)
Язык : Russian
Default : Нет
Forced : Нет
Аудио #4
Идентификатор : 5
Формат : AC-3
Формат/Информация : Audio Coding 3
Расширение режима : CM (complete main)
Параметр Endianness формата : Big
Идентификатор кодека : A_AC3
Продолжительность : 1 ч. 43 м.
Вид битрейта : Постоянный
Битрейт : 192 Кбит/сек
Каналы : 2 канала
Расположение каналов : Front: L R
Частота : 48,0 КГц
Битовая глубина : 16 бит
Метод сжатия : С потерями
Размер потока : 143 Мбайт (1%)
Заголовок : MVO (Lazer Video)
Язык : Russian
Default : Нет
Forced : Нет
Аудио #5
Идентификатор : 6
Формат : AC-3
Формат/Информация : Audio Coding 3
Расширение режима : CM (complete main)
Параметр Endianness формата : Big
Идентификатор кодека : A_AC3
Продолжительность : 1 ч. 43 м.
Вид битрейта : Постоянный
Битрейт : 192 Кбит/сек
Каналы : 2 канала
Расположение каналов : Front: L R
Частота : 48,0 КГц
Битовая глубина : 16 бит
Метод сжатия : С потерями
Размер потока : 143 Мбайт (1%)
Заголовок : MVO (СТС)
Язык : Russian
Default : Нет
Forced : Нет
Аудио #6
Идентификатор : 7
Формат : AC-3
Формат/Информация : Audio Coding 3
Расширение режима : CM (complete main)
Параметр Endianness формата : Big
Идентификатор кодека : A_AC3
Продолжительность : 1 ч. 43 м.
Вид битрейта : Постоянный
Битрейт : 384 Кбит/сек
Каналы : 6 каналов
Расположение каналов : Front: L C R, Side: L R, LFE
Частота : 48,0 КГц
Битовая глубина : 16 бит
Метод сжатия : С потерями
Размер потока : 285 Мбайт (2%)
Заголовок : AVO (Гаврилов)
Язык : Russian
Default : Нет
Forced : Нет
Аудио #7
Идентификатор : 8
Формат : AC-3
Формат/Информация : Audio Coding 3
Расширение режима : CM (complete main)
Параметр Endianness формата : Big
Идентификатор кодека : A_AC3
Продолжительность : 1 ч. 43 м.
Вид битрейта : Постоянный
Битрейт : 448 Кбит/сек
Каналы : 6 каналов
Расположение каналов : Front: L C R, Side: L R, LFE
Частота : 48,0 КГц
Битовая глубина : 16 бит
Метод сжатия : С потерями
Размер потока : 333 Мбайт (3%)
Заголовок : AVO (Горчаков)
Язык : Russian
Default : Нет
Forced : Нет
Аудио #8
Идентификатор : 9
Формат : AC-3
Формат/Информация : Audio Coding 3
Расширение режима : CM (complete main)
Параметр Endianness формата : Big
Идентификатор кодека : A_AC3
Продолжительность : 1 ч. 43 м.
Вид битрейта : Постоянный
Битрейт : 640 Кбит/сек
Каналы : 6 каналов
Расположение каналов : Front: L C R, Side: L R, LFE
Частота : 48,0 КГц
Битовая глубина : 16 бит
Метод сжатия : С потерями
Размер потока : 476 Мбайт (4%)
Заголовок : Original
Язык : English
Default : Нет
Forced : Нет
Текст #1
Идентификатор : 10
Формат : UTF-8
Идентификатор кодека : S_TEXT/UTF8
Идентификатор кодека/Информация : UTF-8 Plain Text
Заголовок : Full
Язык : Russian
Default : Нет
Forced : Нет
Текст #2
Идентификатор : 11
Формат : UTF-8
Идентификатор кодека : S_TEXT/UTF8
Идентификатор кодека/Информация : UTF-8 Plain Text
Заголовок : SDH
Язык : English
Default : Нет
Forced : Нет
Меню
00:00:00.000 : en:Chapter 01
00:08:42.939 : en:Chapter 02
00:20:31.522 : en:Chapter 03
00:28:44.014 : en:Chapter 04
00:36:57.006 : en:Chapter 05
00:43:37.949 : en:Chapter 06
00:55:02.174 : en:Chapter 07
01:04:35.455 : en:Chapter 08
01:12:25.132 : en:Chapter 09
01:22:18.851 : en:Chapter 10
01:31:58.555 : en:Chapter 11
01:38:15.348 : en:Chapter 12

Сравнение Blu-ray VC-1 vs Blu-ray AVC vs BDRip x264

[Профиль] [ЛС]
Кто просматривает тему:

Форум Тема Автор Размер
Da Vinci Learning Da Vinci Learning: Сила знания. Великие университеты Европы / The Power of Knowledge - Europe's Great Universities [серии 1-6 из 6] (Norbert Kron & Matthias Hoferichter, Galina Breitkreuz,... skorpionN 4.22 GB
Cистемные Утилиты Re-Loader v.1.2 FINAL by R@1n - Универсальный активатор (17/02/2015) MOTrOSS 326 MB
Cистемные Утилиты Re-Loader v.1.3 Alfa 6 by R@1n - Универсальный активатор MOTrOSS 332 MB
LiveCD System USB-Flash 10 v4.3 (Универсальное создание USB-накопителя) - Ubuntu x86, Windows XP SP3 x86, Windows 7 SP1 x86/x64, Windows 8.1 Update x86/x64, Драйвер-Паки для всех Windows (от 07.05.2015) MOTrOSS 31.19 GB
Windows XP Windows XP Pro SP3 (x86) (Rus) by Viktor Kisel - Универсальный образ системного раздела для восстановления на любой компьютер. nickson-82 2.83 GB
Кино СССР За витриной универмага (Самсон Самсонов) [1955, комедия, DVDRip] sergej644 1.37 GB
Научная и техническая литература Исаева Е. Л., Куликова В. Н., Аристамбекова Н. Е. - Универсальный энциклопедический справочник (2015) FB2 достали все 3 MB
Apple, iOS, iPad, iPhone Корпорация монстров / Monsters, Inc. / Университет монстров / Monsters University (2001-2013) BDRip 720p | iPad sergej644 3.31 GB
Показать сообщения:    

Текущее время: Сегодня 02:15

Часовой пояс: GMT



Вы не можете начинать темы
Вы не можете отвечать на сообщения
Вы не можете редактировать свои сообщения
Вы не можете удалять свои сообщения
Вы не можете голосовать в опросах
Вы не можете прикреплять файлы к сообщениям
Вы не можете скачивать файлы