Унесенные ветром / Gone With The Wind (Виктор Флеминг, Джордж Кьюкор, Сэм Вуд) [1939, мелодрама, драма, BDRip] 1080p

 
Автор Сообщение

sergej644 ®

Пол:

Стаж: 4 года 11 месяцев

Сообщений: 6035

Откуда: Soviet Union



Награды: Нет

Торрент-статистика

Создавать темы 22-Мар-2015 23:15

[Цитировать]

--Унесенные ветром / Gone With The Wind

Название: Унесенные ветром
Оригинальное название: Gone With The Wind
Год выхода: 1939
Жанр: мелодрама, драма, военный
Режиссер: Виктор Флеминг, Джордж Кьюкор, Сэм Вуд
В ролях: Вивьен Ли, Кларк Гейбл, Лесли Ховард, Оливия Де Хэвиллэнд, Оскар Полк, Хэтти МакДэниэл, Эверетт Браун, Томас Митчел, Барбара О`Нил, Эвелин Кийес, Энн Рутерфорд, Джордж Ривз, Фред Крэйн, Баттерфлай МакКуин, Виктор Джори, Ховард С. Хикман, Алисия Ретт, Рэнд Брукс, Кэрролл Най, Лаура Хоуп Крюс, Эдди «Рочестер» Андерсон

Незабываемый любовный роман времен американской Гражданской войны. Бессмертным героям этой эпической саги Скарлетт, Ретт, Эшли, Мелани, Матушка и Присси — удалось покорить не одно поколение кинозрителей.

Выпущено: США
Студия: Metro-Goldwyn-Mayer
Продолжительность: 03:53:14
Перевод: Дублированный + Оригинал
Файл
Кодек: x264
Качество: BDRip (источник: Blu-ray Disc)
Видео: 1480x1080 (1,370), 23.976 fps, 8323 kbps
Аудио #1: AC-3, 2 ch, 192 kbps (Rus) Дубляж, Советский
Аудио #2: AC-3, 6 ch, 384 kbps (Rus) Дубляж, Blu-ray CEE
Аудио #3: AC-3, 6 ch, 640 kbps (Eng) Оригинал
Субтитры: Русские, Английские-

Скриншоты

MI

Общее
Уникальный идентификатор                 : 186458510912657528549958082577893651561 (0x8C469A5B46897323A07F336C9D4B7469)
Полное имя                               : F:РипыGone.With.The.Wind.1939.BDRip.1080p.Rus.Eng.mkv
Формат                                   : Matroska
Версия формата                           : Version 2
Размер файла                             : 15,5 Гбайт
Продолжительность                        : 3 ч. 53 м.
Общий поток                              : 9540 Кбит/сек
Название фильма                          : Унесенные ветром / Gone with the Wind (1939) | 70th Anniversary Edition
Дата кодирования                         : UTC 2013-10-01 10:03:32
Программа кодирования                    : mkvmerge v5.8.0 ('No Sleep / Pillow') built on Sep  2 2012 15:37:04
Библиотека кодирования                   : libebml v1.2.3 + libmatroska v1.3.0
Attachment                               : Yes
Видео
Идентификатор                            : 1
Формат                                   : AVC
Формат/Информация                        : Advanced Video Codec
Профиль формата                          : High@L4.1
Параметр CABAC формата                   : Да
Параметр ReFrames формата                : 5 кадров
Идентификатор кодека                     : V_MPEG4/ISO/AVC
Продолжительность                        : 3 ч. 53 м.
Битрейт                                  : 8323 Кбит/сек
Ширина                                   : 1480 пикселей
Высота                                   : 1080 пикселей
Соотношение сторон                       : 1,370
Режим частоты кадров                     : Постоянный
Частота кадров                           : 23,976 кадра/сек
Цветовое пространство                    : YUV
Субдискретизация насыщенности            : 4:2:0
Битовая глубина                          : 8 бит
Тип развёртки                            : Прогрессивная
Бит/(Пиксели*Кадры)                      : 0.217
Размер потока                            : 13,3 Гбайт (85%)
Заголовок                                : Release by N1NT3NDO
Библиотека кодирования                   : x264 core 138 r2358 9e941d1
Настройки программы                      : cabac=1 / ref=5 / deblock=1:-3:-3 / analyse=0x3:0x133 / me=tesa / subme=11 / psy=1 / psy_rd=1.00:0.00 / mixed_ref=1 / me_range=32 / chroma_me=1 / trellis=2 / 8x8dct=1 / cqm=0 / deadzone=21,11 / fast_pskip=0 / chroma_qp_offset=-2 / threads=12 / lookahead_threads=1 / sliced_threads=0 / nr=0 / decimate=0 / interlaced=0 / bluray_compat=0 / constrained_intra=0 / bframes=6 / b_pyramid=2 / b_adapt=2 / b_bias=0 / direct=3 / weightb=1 / open_gop=0 / weightp=2 / keyint=240 / keyint_min=23 / scenecut=40 / intra_refresh=0 / rc_lookahead=80 / rc=2pass / mbtree=0 / bitrate=8323 / ratetol=1.0 / qcomp=0.60 / qpmin=0 / qpmax=69 / qpstep=4 / cplxblur=20.0 / qblur=0.5 / vbv_maxrate=50000 / vbv_bufsize=62500 / nal_hrd=none / ip_ratio=1.40 / pb_ratio=1.30 / aq=1:1.00
Язык                                     : English
Default                                  : Да
Forced                                   : Нет
Аудио #1
Идентификатор                            : 2
Формат                                   : AC-3
Формат/Информация                        : Audio Coding 3
Расширение режима                        : CM (complete main)
Параметр Endianness формата              : Big
Идентификатор кодека                     : A_AC3
Продолжительность                        : 3 ч. 53 м.
Вид битрейта                             : Постоянный
Битрейт                                  : 192 Кбит/сек
Каналы                                   : 2 канала
Расположение каналов                     : Front: L R
Частота                                  : 48,0 КГц
Битовая глубина                          : 16 бит
Метод сжатия                             : С потерями
Размер потока                            : 320 Мбайт (2%)
Заголовок                                : Rus (Дубляж, Советский)
Язык                                     : Russian
Default                                  : Да
Forced                                   : Нет
Аудио #2
Идентификатор                            : 3
Формат                                   : AC-3
Формат/Информация                        : Audio Coding 3
Расширение режима                        : CM (complete main)
Параметр Endianness формата              : Big
Идентификатор кодека                     : A_AC3
Продолжительность                        : 3 ч. 53 м.
Вид битрейта                             : Постоянный
Битрейт                                  : 384 Кбит/сек
Каналы                                   : 6 каналов
Расположение каналов                     : Front: L C R, Side: L R, LFE
Частота                                  : 48,0 КГц
Битовая глубина                          : 16 бит
Метод сжатия                             : С потерями
Размер потока                            : 641 Мбайт (4%)
Заголовок                                : Rus (Дубляж, Blu-ray CEE)
Язык                                     : Russian
Default                                  : Нет
Forced                                   : Нет
Аудио #3
Идентификатор                            : 4
Формат                                   : AC-3
Формат/Информация                        : Audio Coding 3
Расширение режима                        : CM (complete main)
Параметр Endianness формата              : Big
Идентификатор кодека                     : A_AC3
Продолжительность                        : 3 ч. 53 м.
Вид битрейта                             : Постоянный
Битрейт                                  : 640 Кбит/сек
Каналы                                   : 6 каналов
Расположение каналов                     : Front: L C R, Side: L R, LFE
Частота                                  : 48,0 КГц
Битовая глубина                          : 16 бит
Метод сжатия                             : С потерями
Размер потока                            : 1,04 Гбайт (7%)
Заголовок                                : Eng
Язык                                     : English
Default                                  : Нет
Forced                                   : Нет
Текст #1
Идентификатор                            : 5
Формат                                   : UTF-8
Идентификатор кодека                     : S_TEXT/UTF8
Идентификатор кодека/Информация          : UTF-8 Plain Text
Заголовок                                : Rus
Язык                                     : Russian
Default                                  : Нет
Forced                                   : Нет
Текст #2
Идентификатор                            : 6
Формат                                   : UTF-8
Идентификатор кодека                     : S_TEXT/UTF8
Идентификатор кодека/Информация          : UTF-8 Plain Text
Заголовок                                : Eng
Язык                                     : English
Default                                  : Нет
Forced                                   : Нет
Меню
00:00:00.000                             : :Chapter 01
00:02:35.780                             : :Chapter 02
00:06:46.906                             : :Chapter 03
00:09:38.995                             : :Chapter 04
00:15:25.424                             : :Chapter 05
00:17:53.655                             : :Chapter 06
00:21:42.175                             : :Chapter 07
00:25:46.878                             : :Chapter 08
00:28:35.004                             : :Chapter 09
00:32:35.036                             : :Chapter 10
00:35:39.345                             : :Chapter 11
00:38:09.662                             : :Chapter 12
00:42:22.248                             : :Chapter 13
00:46:02.551                             : :Chapter 14
00:48:47.090                             : :Chapter 15
00:52:02.160                             : :Chapter 16
00:55:26.406                             : :Chapter 17
00:58:42.769                             : :Chapter 18
01:01:42.448                             : :Chapter 19
01:04:45.798                             : :Chapter 20
01:10:41.862                             : :Chapter 21
01:14:50.486                             : :Chapter 22
01:17:06.913                             : :Chapter 23
01:18:53.979                             : :Chapter 24
01:23:06.731                             : :Chapter 25
01:27:39.712                             : :Chapter 26
01:31:47.293                             : :Chapter 27
01:34:58.234                             : :Chapter 28
01:38:03.377                             : :Chapter 29
01:41:59.112                             : :Chapter 30
01:44:12.955                             : :Chapter 31
01:48:12.486                             : :Chapter 32
01:49:42.951                             : :Chapter 33
01:52:41.504                             : :Chapter 34
01:57:31.419                             : :Chapter 35
02:01:43.170                             : :Chapter 36
02:03:47.336                             : :Chapter 37
02:09:19.918                             : :Chapter 38
02:11:21.206                             : :Chapter 39
02:14:24.389                             : :Chapter 40
02:19:39.871                             : :Chapter 41
02:25:18.501                             : :Chapter 42
02:29:54.402                             : :Chapter 43
02:32:43.070                             : :Chapter 44
02:37:26.687                             : :Chapter 45
02:42:47.466                             : :Chapter 46
02:46:00.533                             : :Chapter 47
02:53:12.215                             : :Chapter 48
02:57:13.247                             : :Chapter 49
03:00:25.481                             : :Chapter 50
03:05:08.847                             : :Chapter 51
03:08:46.940                             : :Chapter 52
03:12:17.692                             : :Chapter 53
03:14:08.637                             : :Chapter 54
03:18:52.879                             : :Chapter 55
03:24:14.116                             : :Chapter 56
03:29:55.582                             : :Chapter 57
03:32:26.400                             : :Chapter 58
03:35:29.708                             : :Chapter 59
03:39:29.531                             : :Chapter 60
03:41:43.581                             : :Chapter 61
03:46:43.381                             : :Chapter 62
03:48:56.931                             : :Chapter 63
--
[Профиль] [ЛС]
Показать сообщения:    

Текущее время: Сегодня 18:19

Часовой пояс: GMT



Вы не можете начинать темы
Вы не можете отвечать на сообщения
Вы не можете редактировать свои сообщения
Вы не можете удалять свои сообщения
Вы не можете голосовать в опросах
Вы не можете прикреплять файлы к сообщениям
Вы не можете скачивать файлы