Ундина / Ondine (Нил Джордан / Neil Jordan) [2009 г., Ирландия, США, драма, мелодрама, BDRip] MVO (R5) + VO (Синта Рурони) + Original + Sub (Rus, Eng)

 
Автор Сообщение

painkiller ®

Стаж: 2 года 3 месяца

Сообщений: 582



Награды: Нет

Торрент-статистика

Создавать темы 14-Авг-2014 13:02

[Цитировать]

УндинаOndine-«Истина не то, что вы знаете. Это то, что вы верите»- Год выпуска: 2009
Страна: Ирландия, США-Жанр: драма, мелодрама
Продолжительность: 01:43:40
Перевод:
  • Профессиональный (многоголосый закадровый) (R5)
  • Одноголосый, закадровый (Синта Рурони)
Субтитры: русские, английские-Режиссер: Нил Джордан / Neil Jordan
Сценарий: Нил Джордан / Neil Jordan
Продюсер: Бен Браунинг / Ben Browning, Джеймс Флинн / James Flynn, Нил Джордан / Neil Jordan, Нед Дауд / Ned Dowd, Майкл Мехер / Michael Maher
Оператор: Кристофер Дойл / Christopher Doyle
Композитор: Кьяртан Свеиниссон / Kjartan Sveinsson-В ролях: Колин Фаррелл (Syracuse), Алиция Бахледа (Ondine), Дервла Кирван (Maura), Элисон Бэрри (Annie), Мэрион О’Двайр (Nurse - Dialysis), Тони Карран (Alex), Мэри О’Ши (Fish Co Op Worker), Джемма Ривз (Draper's Shop Tracy), Стивен Ри (Priest), Норма Шихан (Librarian), Эмиль Хостина (Vladic), Конор Пауэр (Eion)-Описание: Жизнь рыбака Сиракуза и его дочки Энни переворачивается, когда главному герою в сети попадает прекрасная и таинственная незнакомка. Энни верит, что девушка - волшебное существо, а у Сиракуза все прозаичнее: он попросту безнадежно влюбляется в красавицу. Постепенно жизнь Сиракуза и всех его окружающих меняется, и они начинают подозревать, что в сети попалась не просто девушка, а морская нимфа.-kinopoisk.ru: 7.070 (3653)
imdb.com: 6.90 (13 727)
MPAA: PG-13 - Детям до 13 лет просмотр не желателен-Качество: BDRip

Контейнер: AVI
Видео: 720x400 (1.80:1), 23.976 fps, XviD MPEG-4 ~2110 kbps avg, 0.30 bit/pixel
Аудио I: 48 kHz, AC3 Dolby Digital, 3/2 (L,C,R,l,r) + LFE ch, ~448 kbps (MVO)
Аудио II: 48 kHz, AC3 Dolby Digital, 3/2 (L,C,R,l,r) + LFE ch, ~448 kbps (VO) (отдельно)
Аудио III: 48 kHz, AC3 Dolby Digital, 3/2 (L,C,R,l,r) + LFE ch, ~448 kbps (Original)--

MediaInfo

General
Complete name                            : E:\Рипы\Ondine.2009.BDRip.All.Films\Ondine.2009.BDRip.All.Films.avi
Format                                   : AVI
Format/Info                              : Audio Video Interleave
Format profile                           : OpenDML
File size                                : 2.18 GiB
Duration                                 : 1h 43mn
Overall bit rate                         : 3 013 Kbps
Movie name                               : Ondine.2009.BDRip.All.Films
Director                                 : DIABLO93
Genre                                    : Drama
Writing application                      : VirtualDubMod 1.5.10.3 | www.virtualdub-fr.org || (build 2550/release)
Original source form/Name                : Movie
Copyright                                : Rutracker.org (R.G. All Films)
Video
ID                                       : 0
Format                                   : MPEG-4 Visual
Format profile                           : Advanced Simple@L5
Format settings, BVOP                    : 2
Format settings, QPel                    : No
Format settings, GMC                     : No warppoints
Format settings, Matrix                  : Custom
Codec ID                                 : XVID
Codec ID/Hint                            : XviD
Duration                                 : 1h 43mn
Bit rate                                 : 2 100 Kbps
Width                                    : 720 pixels
Height                                   : 400 pixels
Display aspect ratio                     : 16:9
Frame rate                               : 23.976 fps
Color space                              : YUV
Chroma subsampling                       : 4:2:0
Bit depth                                : 8 bits
Scan type                                : Progressive
Compression mode                         : Lossy
Bits/(Pixel*Frame)                       : 0.304
Stream size                              : 1.52 GiB (70%)
Writing library                          : XviD 65
Audio #1
ID                                       : 1
Format                                   : AC-3
Format/Info                              : Audio Coding 3
Mode extension                           : CM (complete main)
Format settings, Endianness              : Big
Codec ID                                 : 2000
Duration                                 : 1h 43mn
Bit rate mode                            : Constant
Bit rate                                 : 448 Kbps
Channel(s)                               : 6 channels
Channel positions                        : Front: L C R, Side: L R, LFE
Sampling rate                            : 48.0 KHz
Bit depth                                : 16 bits
Compression mode                         : Lossy
Stream size                              : 332 MiB (15%)
Alignment                                : Split accross interleaves
Interleave, duration                     : 42 ms (1.00 video frame)
Interleave, preload duration             : 500 ms
Audio #2
ID                                       : 2
Format                                   : AC-3
Format/Info                              : Audio Coding 3
Mode extension                           : CM (complete main)
Format settings, Endianness              : Big
Codec ID                                 : 2000
Duration                                 : 1h 43mn
Bit rate mode                            : Constant
Bit rate                                 : 448 Kbps
Channel(s)                               : 6 channels
Channel positions                        : Front: L C R, Side: L R, LFE
Sampling rate                            : 48.0 KHz
Bit depth                                : 16 bits
Compression mode                         : Lossy
Stream size                              : 332 MiB (15%)
Alignment                                : Split accross interleaves
Interleave, duration                     : 42 ms (1.00 video frame)
Interleave, preload duration             : 500 ms

-

Скриншоты

-
[Профиль] [ЛС]

Создавать темы 06-Авг-2015 23:13 (спустя 11 месяцев 23 дня)

Топик был перенесен из форума Фильмы до 2014 года в форум Фильмы до 2012 года
sergej644
 

Создавать темы 12-Июн-2016 08:48 (спустя 1 год 9 месяцев)

Топик был перенесен из форума Фильмы 2011 года в форум Фильмы 2009 года
Russian Mafia
 
Показать сообщения:    

Текущее время: Сегодня 04:15

Часовой пояс: GMT



Вы не можете начинать темы
Вы не можете отвечать на сообщения
Вы не можете редактировать свои сообщения
Вы не можете удалять свои сообщения
Вы не можете голосовать в опросах
Вы не можете прикреплять файлы к сообщениям
Вы не можете скачивать файлы