Умная дочь крестьянина / Die kluge Bauerntochter (Вольфганг Айсслер / Wolfgang Eissler) [2009, Германия, детский, семейный, фэнтези, DVB] Dub

 
Автор Сообщение

reversefile ®

Пол:

Стаж: 4 года 5 месяцев

Сообщений: 842

Откуда: ReverseFile.org



Награды: Нет

Торрент-статистика

Создавать темы 13-Авг-2014 10:02

[Цитировать]

Умная дочь крестьянина / Die kluge Bauerntochter
Год выпуска: 2009
Страна: Германия, Mitteldeutscher Rundfunk
Жанр: детский, семейный, фэнтези
Продолжительность: 00:55:37
Перевод: профессиональный (дублированный) по заказу ЗАО «Первый канал. Всемирная сеть»
Русские субтитры: нет
Режиссёр: Вольфганг Айсслер / Wolfgang Eissler
В ролях: Анна Мария Мюэ, Максим Мехмет, Суньи Меллес, Рольф Канис, Катарина Хайер, Даниэль Зильманн, Фальк Рокстрох, Сабине Краузе, Мари Грубер
Описание: однажды король даровал бедному крестьянину и его дочери участок плодородной земли. Обрабатывая землю, крестьяне выкопали из нее золотую ступку. В знак благодарности отец решил подарить ее королю, но дочь предупредила его, что государь может потребовать к ступке еще и пестик. Отец не послушался, отправился к королю с одной только ступкой и угодил в темницу. Его дочь отправилась во дворец, чтобы выручить отца из беды. Своей мудростью она так очаровала короля, что тот пообещал на ней жениться, если девушка разгадает его загадку...
Доп. информация: по мотивам сказки братьев Гримм

Трансляция спутникового канала:

Семпл: https://yadi.sk/i/bew5Sp_SZLfxz
Качество видео: DVB
Формат видео: MPEG-PS
Видео: MPEG2 Video, 720x576 (4:3), 25 fps, 2800 kbps
Аудио: MPEG Audiо, 2 сh, 48 kHz, 192 kbps

MediaInfo

General
Complete name : D:\Умная дочь крестьянина. (2009)_DVB by SLuMeP.mpg
Format : MPEG-PS
File size : 1.17 GiB
Duration : 55mn 37s
Overall bit rate mode : Variable
Overall bit rate : 3 005 Kbps
Video
ID : 224 (0xE0)
Format : MPEG Video
Format version : Version 2
Format profile : Main@Main
Format settings, BVOP : No
Format settings, Matrix : Custom
Format settings, GOP : M=3, N=12
Duration : 55mn 37s
Bit rate mode : Variable
Bit rate : 2 753 Kbps
Maximum bit rate : 5 000 Kbps
Width : 720 pixels
Height : 576 pixels
Display aspect ratio : 4:3
Frame rate : 25.000 fps
Standard : PAL
Color space : YUV
Chroma subsampling : 4:2:0
Bit depth : 8 bits
Scan type : Interlaced
Scan order : Top Field First
Compression mode : Lossy
Bits/(Pixel*Frame) : 0.266
Time code of first frame : 00:00:00:00
Time code source : Group of pictures header
Stream size : 1.07 GiB (92%)
Audio
ID : 192 (0xC0)
Format : MPEG Audio
Format version : Version 1
Format profile : Layer 2
Duration : 55mn 37s
Bit rate mode : Constant
Bit rate : 192 Kbps
Channel(s) : 2 channels
Sampling rate : 48.0 KHz
Compression mode : Lossy
Stream size : 76.4 MiB (6%)

Скриншоты


[Профиль] [ЛС]

Создавать темы 06-Авг-2015 23:19 (спустя 11 месяцев 24 дня)

Топик был перенесен из форума Фильмы до 2014 года в форум Фильмы до 2012 года
sergej644
 

Создавать темы 12-Июн-2016 08:13 (спустя 1 год 9 месяцев)

Топик был перенесен из форума Фильмы 2011 года в форум Фильмы 2009 года
Russian Mafia
 
Кто просматривает тему:

Форум Тема Автор Размер
Фильмы (HD Rips | 720p, 1080p) Безумная свадьба / Qu'est-ce qu'on a fait au Bon Dieu? (2014) BDRip 720p | Лицензия sergej644 4.63 GB
Фильмы 2014 года Безумная свадьба / Qu'est-ce qu'on a fait au Bon Dieu? (2014) BDRip-AVC | Лицензия sergej644 1.86 GB
Фильмы (HD DVD, Blu-ray и BDRemux) Безумная свадьба / Qu'est-ce qu'on a fait au Bon Dieu? (2014) Blu-Ray | Rus Transfer | Лицензия Russian Mafia 19.28 GB
Фильмы 2014 года Безумная свадьба / Qu'est-ce qu'on a fait au Bon Dieu? (Филипп де Шоврон) [2014 г., Комедия, HDRip] BOSS 1.46 GB
Фильмы (HD Rips | 720p, 1080p) Красивая и Безумная / Beautiful & Twisted (2015) WEB-DL 1080p | iTunes sergej644 3.49 GB
Фильмы 2015 года Красивая и Безумная / Beautiful & Twisted (Кристофер Залла) [2015, триллер, драма, криминал] WEB-DLRip | iTunes BOSS 1.37 GB
Фильмы 2015 года Красивая и безумная / Beautiful & Twisted (Кристофер Залла / Christopher Zalla) [2015, США, триллер, драма, криминал, WEB-DLRip] MVO TorrentFilm 747 MB
Фильмы 2015 года Красивая и безумная / Beautiful & Twisted (Кристофер Залла / Christopher Zalla) [2015, США, триллер, драма, криминал, WEB-DLRip] MVO + 2xSub (Rus, Eng) + Original Eng TorrentFilm 1.7 GB
Показать сообщения:    

Текущее время: Сегодня 09:58

Часовой пояс: GMT



Вы не можете начинать темы
Вы не можете отвечать на сообщения
Вы не можете редактировать свои сообщения
Вы не можете удалять свои сообщения
Вы не можете голосовать в опросах
Вы не можете прикреплять файлы к сообщениям
Вы не можете скачивать файлы