Умка. Умка ищет друга (Владимир Попов, Владимир Пекарь) [1969-1970г., Мультфильм, DVB]

 
Автор Сообщение

painkiller ®

Стаж: 2 года 3 месяца

Сообщений: 582



Награды: Нет

Торрент-статистика

Создавать темы 27-Авг-2014 15:29

[Цитировать]

Умка. Умка ищет друга
Жанр: Мультфильм
Год выпуска: 1969-1970 г.
Продолжительность: 00:09:40+00:09:30
Режиссёр: Владимир Попов, Владимир Пекарь
Описание: В 1969 году на Союзмультфильме вышел мультипликационный фильм о белом медвежонке по имени Умка, а через год ─ его продолжение. По сути, эти два недлинных мультика рассказывают о дружбе детёныша самого большого сухопутного хищника с детёнышем хищника самого опасного. И эта поэтическая история ─ отнюдь не для детей. Она ─ для родителей.
1. "Умка"
Белый медвежонок по имени Умка (от чук. умкы — «самец белого медведя») случайно познакомился с мальчиком. Они подружились. Однако люди уходят из той местности, где жил Умка. Медвежонок расстроен. Он решает найти своего друга.
2. "Умка ищет друга"
Во второй части мультфильма, придя под Новый год на находящуюся неподалёку полярную станцию, Умка после ряда забавных приключений ухитряется сесть в вертолёт, чтобы продолжить поиски приятеля-мальчика.
Релиз спутникового канала: "Карусель"

Качество видео: DVB
Формат видео: MPEG-PS
Видео: MPEG2 Video, 720x576, 25 fps, 4200 kbps
Аудио: MPEG Audio, 2 сh, 48 kHz, 192 kbps

MediaInfoУмка

General
Complete name : D:\_DVB by SLIMER_\Умка (1960)\1c. Умка.(1960)_DVB by SLuMeP.mpg
Format : MPEG-PS
File size : 309 MiB
Duration : 9mn 40s
Overall bit rate : 4 469 Kbps
Writing library : (c) 1998-2010 Womble Multimedia, Inc. / MPEG Video Wizard DVD 5.0.0.114 (01/2010) / Apr 20 2010
Video
ID : 224 (0xE0)
Format : MPEG Video
Format version : Version 2
Format profile : Main@Main
Format settings, BVOP : Yes
Format settings, Matrix : Default
Format settings, GOP : M=3, N=12
Duration : 9mn 40s
Bit rate mode : Variable
Bit rate : 4 188 Kbps
Nominal bit rate : 5 000 Kbps
Width : 720 pixels
Height : 576 pixels
Display aspect ratio : 4:3
Frame rate : 25.000 fps
Standard : PAL
Color space : YUV
Chroma subsampling : 4:2:0
Bit depth : 8 bits
Scan type : Interlaced
Scan order : Top Field First
Bits/(Pixel*Frame) : 0.404
Stream size : 290 MiB (94%)
Writing library : (c) 1998-2010 Womble Multimedia, Inc. / MPEG Video Wizard DVD 5.0.0.114 (01/2010) / Apr 20 2010
Audio
ID : 192 (0xC0)
Format : MPEG Audio
Format version : Version 1
Format profile : Layer 2
Duration : 9mn 40s
Bit rate mode : Constant
Bit rate : 192 Kbps
Channel(s) : 2 channels
Sampling rate : 48.0 KHz
Stream size : 13.3 MiB (4%)

Умка ищет друга

General
Complete name : D:\_DVB by SLIMER_\Умка (1960)\2c. Умка ищет друга.(1970)_DVB by SLuMeP.mpg
Format : MPEG-PS
File size : 304 MiB
Duration : 9mn 30s
Overall bit rate : 4 466 Kbps
Writing library : (c) 1998-2010 Womble Multimedia, Inc. / MPEG Video Wizard DVD 5.0.0.114 (01/2010) / Apr 20 2010
Video
ID : 224 (0xE0)
Format : MPEG Video
Format version : Version 2
Format profile : Main@Main
Format settings, BVOP : Yes
Format settings, Matrix : Default
Format settings, GOP : M=3, N=12
Duration : 9mn 30s
Bit rate mode : Variable
Bit rate : 4 185 Kbps
Nominal bit rate : 5 000 Kbps
Width : 720 pixels
Height : 576 pixels
Display aspect ratio : 4:3
Frame rate : 25.000 fps
Standard : PAL
Color space : YUV
Chroma subsampling : 4:2:0
Bit depth : 8 bits
Scan type : Interlaced
Scan order : Top Field First
Bits/(Pixel*Frame) : 0.404
Stream size : 285 MiB (94%)
Writing library : (c) 1998-2010 Womble Multimedia, Inc. / MPEG Video Wizard DVD 5.0.0.114 (01/2010) / Apr 20 2010
Audio
ID : 192 (0xC0)
Format : MPEG Audio
Format version : Version 1
Format profile : Layer 2
Duration : 9mn 30s
Bit rate mode : Constant
Bit rate : 192 Kbps
Channel(s) : 2 channels
Sampling rate : 48.0 KHz
Stream size : 13.1 MiB (4%)
[Профиль] [ЛС]
Кто просматривает тему:

Показать сообщения:    

Текущее время: Сегодня 04:46

Часовой пояс: GMT



Вы не можете начинать темы
Вы не можете отвечать на сообщения
Вы не можете редактировать свои сообщения
Вы не можете удалять свои сообщения
Вы не можете голосовать в опросах
Вы не можете прикреплять файлы к сообщениям
Вы не можете скачивать файлы