Умирая в Афинах / Pethainontas stin Athina / Dying in Athens (Никос Панайотопулос / Nikos Panayotopoulos) [2006, Греция, музыкальный, мелодрама, драма, DVB-AVC] DVO (Kino Polska)

 
Автор Сообщение

TorrentFilm ®

Пол:

Стаж: 1 год 11 месяцев

Сообщений: 7741



Награды: Нет

Торрент-статистика

Создавать темы 14-Июл-2015 00:10

[Цитировать]

Умирая в Афинах
ΠΕΘΑΙΝΟΝΤΑΣ ΣΤΗΝ ΑΘΗΝΑ- Страна: Греция
Жанр: музыкальный, мелодрама, драма
Год выпуска: 2006
Продолжительность: 01:37:53Перевод: Профессиональный (двухголосый закадровый) по заказу Kino Polska на производственно-технической базе Студии "Акцент"
Cубтитры: нет
Оригинальная аудиодорожка: греческий
Режиссер: Никос Панайотопулос / Nikos Panayotopoulos
В ролях: Спирос Пападопулос / Spiros Papadopoulos (Andreas), Мария Нафплиоту / Maria Nafpliotou (Anna), Мария Салому / Maria Solomou (Camille), Вики Пападопулу / Vicky Papadopoulou (Lia), Стафил Лаватинос / Stathis Livathinos (Stathis Livathinos), Фэй Ксила / Fay Ksila (Nurse)
Описание: Греческая трагедия во французском стиле. Мужчине средних лет ставят смертельный диагноз лейкемия. В последние месяцы своей жизни он хочет очиститься ото лжи, которую говорил близким. Три его большие любви (жена и две любовницы) решили поддержать его до конца. Но действительно ли они хотят помочь ему или жаждут мести?
Доп. информация: Filmbox Arthouse IPTV
Участник Panorama of European Cinema 2006; Thessaloniki International Film Festival 2006; Paris Greek Cinema Panorama 2007; Camerimage Film Festival 2009.

Качество видео: DVB-AVC
Формат видео: MKV
Видео: AVC (H.264), 720x576@1024x576 (16:9), 25 fps, ~463 kbps avg, 0.045 bit/pixel
Аудио 1: MPEG Audio 2, 2 ch, 48 kHz, ~128.00 kbps avg - русский
Аудио 2: MPEG Audio 2, 2 ch, 48 kHz, ~128.00 kbps avg - греческий

MediaInfo

ОбщееУникальный идентификатор : 206573201190195068365388808166028078578 (0x9B688D27C3C961D78512D1106CF3EDF2)Полное имя : F:\My Torrents 3\[apreder]Pethainontas_stin_Athina(2006)DVB.mkvФормат : MatroskaВерсия формата : Version 2Размер файла : 514 МбайтПродолжительность : 1 ч. 37 м.Общий поток : 734 Кбит/секДата кодирования : UTC 2015-07-11 15:46:33Программа кодирования : mkvmerge v8.1.0 ('Psychedelic Postcard') 64bitБиблиотека кодирования : libebml v1.3.1 + libmatroska v1.4.2Attachements : cover.jpg / cover_sample.jpg
ВидеоИдентификатор : 3Формат : AVCФормат/Информация : Advanced Video CodecПрофиль формата : Main@L3Параметр CABAC формата : ДаПараметр ReFrames формата : 3 кадраИдентификатор кодека : V_MPEG4/ISO/AVCБитрейт : 463 Кбит/секШирина : 720 пикселейВысота : 576 пикселейСоотношение сторон : 16:9Соотношение сторон в оригинале : 16:9Режим частоты кадров : ПеременныйЧастота кадров в оригинале : 25,000 кадров/секСтандарт вещания : ComponentЦветовое пространство : YUVСубдискретизация насыщенности : 4:2:0Битовая глубина : 8 битТип развёртки : ЧересстрочнаяПорядок развёртки : Верхнее поле первоеDefault : ДаForced : Нетcolour_range : LimitedОсновные цвета : BT.601 PALХарактеристики трансфера : BT.470 System B, BT.470 System GКоэффициенты матрицы : BT.601
Аудио #1Идентификатор : 1Формат : MPEG AudioВерсия формата : Version 1Профиль формата : Layer 2Идентификатор кодека : A_MPEG/L2Идентификатор кодека/Подсказка : MP2Продолжительность : 1 ч. 37 м.Вид битрейта : ПостоянныйБитрейт : 128 Кбит/секКаналы : 2 каналаЧастота : 48,0 КГцМетод сжатия : С потерямиЗадержка видео : -18 мс.Размер потока : 89,6 Мбайт (17%)Язык : RussianDefault : ДаForced : Нет
Аудио #2Идентификатор : 2Формат : MPEG AudioВерсия формата : Version 1Профиль формата : Layer 2Идентификатор кодека : A_MPEG/L2Идентификатор кодека/Подсказка : MP2Продолжительность : 1 ч. 37 м.Вид битрейта : ПостоянныйБитрейт : 128 Кбит/секКаналы : 2 каналаЧастота : 48,0 КГцМетод сжатия : С потерямиЗадержка видео : -18 мс.Размер потока : 89,6 Мбайт (17%)Язык : GreekDefault : НетForced : Нет

Скриншот c названием фильма

Скриншоты


Резервные скриншоты


-[2'454]
[Профиль] [ЛС]

Создавать темы 06-Авг-2015 22:23 (спустя 23 дня)

Топик был перенесен из форума Фильмы до 2014 года в форум Фильмы до 2012 года
sergej644
 
Кто просматривает тему:

Форум Тема Автор Размер
Разная литература Алексей Зинин, Егор Титов - «Спартак» – наше всё. Откровения кумира красно-белых (2016) FB2 достали все 9 MB
Фантастика, фэнтези Игорь Осипов | Метро 2033. Лешие не умирают (2015) [FB2, EPUB] достали все 2 MB
Фильмы (DVD 5/9) Никто не хотел умирать / Niekas nenorejo mirti / Nobody Wanted to Die (Витаутас Жалакявичюс / Vytautas Zalakevicius) [1965, СССР, драма, DVD9] Dub + Original Lit TorrentFilm 5.6 GB
R.G.TorrentFilm Video Ночь умирающего тигра / A Night for Dying Tigers (Терри Майлз / Terry Miles) [2010, Канада, Драма, SATRip] DVO (НТВ+) Один 777 751 MB
Фильмы (HD DVD, Blu-ray и BDRemux) Он никогда не умирал / He Never Died (2015) BDRemux 1080p | P Russian Mafia 21.7 GB
Фильмы 2015 года Он никогда не умирал / He Never Died (2015) BDRip | L достали все 1.46 GB
Фильмы 2015 года Он никогда не умирал / He Never Died (2015) WEB-DLRip | L2 достали все 1.37 GB
Фильмы 2015 года Он никогда не умирал / He Never Died (Джейсон Кравчик / Jason Krawczyk) [2015, США, Канада, триллер, драма, комедия, нуар, HDRip] Sub Rus + Original Eng TorrentFilm 697 MB
Показать сообщения:    

Текущее время: Сегодня 20:06

Часовой пояс: GMT



Вы не можете начинать темы
Вы не можете отвечать на сообщения
Вы не можете редактировать свои сообщения
Вы не можете удалять свои сообщения
Вы не можете голосовать в опросах
Вы не можете прикреплять файлы к сообщениям
Вы не можете скачивать файлы