Умирающий свет / Dying of the Light (Пол Шредер / Paul Joseph Schrader) [2014, США, триллер, драма, WEB-DLRip] VO (Дмитрий Есарев)

 
Автор Сообщение

TorrentFilm ®

Пол:

Стаж: 2 года

Сообщений: 7741



Награды: Нет

Торрент-статистика

Создавать темы 28-Дек-2014 00:30

[Цитировать]

Умирающий свет / Dying of the Light
Страна: США
Жанр: триллер, драма
Год выпуска: 2014
Продолжительность: 01:34:05
Перевод: Одноголосый (закадровый) [Дмитрий Есарев]
Оригинальная аудиодорожка:нет
Cубтитры: нет
Режиссер: Пол Шредер / Paul Joseph Schrader
В ролях:Николас Кейдж, Антон Ельчин, Александр Карим, Ирен Жакоб, Аймен Хамдуши, Клавдий Питерс, Адетомива Едун, Роберт Дж. Слэйд, Дерек Эзенагу, Джефф Френсис
Описание: Эван Лэйк, выполняющий канцелярскую работу сотрудник ЦРУ, вынужден подать в отставку из-за начавших у него проявляться признаков сумасшествия. В это же время он обнаруживает, что подвергавший его мукам Мухаммед Банир, который уже два десятка лет считается мертвым, на самом деле жив. Заручившись помощью молодого агента, Эван отправляется на поиски Банира…
Сэмпл
Качество: WEB-DLRip
Контейнер: AVI
Видео: 640x272 (2.35:1), 23.976 fps, XviD build 73 ~969 kbps avg, 0.23 bit/pixel
Аудио: 48 kHz, MPEG Layer 3, 2 ch, ~128.00 kbps avg

MI

General
Complete name : C:\Users\Вячеслав\Downloads\Умирающий свет. 2014. WEB-DLRip. (AleksSin).avi
Format : AVI
Format/Info : Audio Video Interleave
File size : 745 MiB
Duration : 1h 34mn
Overall bit rate : 1 107 Kbps
Writing application : VirtualDubMod 1.5.10.3 | www.virtualdub-fr.org || (build 2550/release)
Writing library : VirtualDubMod build 2550/release
Video
ID : 0
Format : MPEG-4 Visual
Format profile : Advanced Simple@L5
Format settings, BVOP : 2
Format settings, QPel : No
Format settings, GMC : No warppoints
Format settings, Matrix : Custom
Codec ID : XVID
Codec ID/Hint : XviD
Duration : 1h 34mn
Bit rate : 970 Kbps
Width : 640 pixels
Height : 272 pixels
Display aspect ratio : 2.35:1
Frame rate : 23.976 fps
Color space : YUV
Chroma subsampling : 4:2:0
Bit depth : 8 bits
Scan type : Progressive
Compression mode : Lossy
Bits/(Pixel*Frame) : 0.232
Stream size : 653 MiB (88%)
Writing library : XviD 73
Audio
ID : 1
Format : MPEG Audio
Format version : Version 1
Format profile : Layer 3
Codec ID : 55
Codec ID/Hint : MP3
Duration : 1h 34mn
Bit rate mode : Constant
Bit rate : 128 Kbps
Channel(s) : 2 channels
Sampling rate : 48.0 KHz
Compression mode : Lossy
Stream size : 86.2 MiB (12%)
Alignment : Aligned on interleaves
Interleave, duration : 42 ms (1.00 video frame)
Interleave, preload duration : 504 ms
Writing library : LAME3.99r
Encoding settings : -m s -V 4 -q 2 -lowpass 17 -b 128

Скриншоты

[Профиль] [ЛС]
Кто просматривает тему:

Форум Тема Автор Размер
Разная литература Алексей Зинин, Егор Титов - «Спартак» – наше всё. Откровения кумира красно-белых (2016) FB2 достали все 9 MB
Фантастика, фэнтези Игорь Осипов | Метро 2033. Лешие не умирают (2015) [FB2, EPUB] достали все 2 MB
Фильмы (DVD 5/9) Никто не хотел умирать / Niekas nenorejo mirti / Nobody Wanted to Die (Витаутас Жалакявичюс / Vytautas Zalakevicius) [1965, СССР, драма, DVD9] Dub + Original Lit TorrentFilm 5.6 GB
R.G.TorrentFilm Video Ночь умирающего тигра / A Night for Dying Tigers (Терри Майлз / Terry Miles) [2010, Канада, Драма, SATRip] DVO (НТВ+) Один 777 751 MB
Фильмы (HD DVD, Blu-ray и BDRemux) Он никогда не умирал / He Never Died (2015) BDRemux 1080p | P Russian Mafia 21.7 GB
Фильмы 2015 года Он никогда не умирал / He Never Died (2015) BDRip | L достали все 1.46 GB
Фильмы 2015 года Он никогда не умирал / He Never Died (2015) WEB-DLRip | L2 достали все 1.37 GB
Фильмы 2015 года Он никогда не умирал / He Never Died (Джейсон Кравчик / Jason Krawczyk) [2015, США, Канада, триллер, драма, комедия, нуар, HDRip] Sub Rus + Original Eng TorrentFilm 697 MB
Показать сообщения:    

Текущее время: Сегодня 20:10

Часовой пояс: GMT



Вы не можете начинать темы
Вы не можете отвечать на сообщения
Вы не можете редактировать свои сообщения
Вы не можете удалять свои сообщения
Вы не можете голосовать в опросах
Вы не можете прикреплять файлы к сообщениям
Вы не можете скачивать файлы