Умирающий свет / Dying of the Light (Пол Шредер / Paul Joseph Schrader) [2014, США, триллер, драма, WEB-DLRip] AVO (Дмитрий Есарев)

 
Автор Сообщение

TorrentFilm ®

Пол:

Стаж: 2 года

Сообщений: 7741



Награды: Нет

Торрент-статистика

Создавать темы 26-Дек-2014 02:00

[Цитировать]

Умирающий свет / Dying of the Light
Страна: США
Жанр: триллер, драма
Год выпуска: 2014
Продолжительность: 01:34:05
Перевод: Одноголосый закадровый (Дмитрий Есарев)
Cубтитры: нет
Режиссер: Пол Шредер / Paul Joseph Schrader
В ролях: Николас Кейдж, Антон Ельчин, Александр Карим, Ирен Жакоб, Аймен Хамдуши, Клавдий Питерс, Адетомива Едун, Роберт Дж. Слэйд, Дерек Эзенагу, Джефф Френсис
Описание: Эван Лэйк, выполняющий канцелярскую работу сотрудник ЦРУ, вынужден подать в отставку из-за начавших у него проявляться признаков сумасшествия. В это же время он обнаруживает, что подвергавший его мукам Мухаммед Банир, который уже два десятка лет считается мертвым, на самом деле жив. Заручившись помощью молодого агента, Эван отправляется на поиски Банира…
Сэмпл: http://multi-up.com/1020078
Качество видео: WEB-DLRip
Формат видео: AVI
Видео: XVID, 720x304, 24 кадр/сек, 1820 Кбит/сек
Аудио: AC3, 384 kb/s (6 ch), 48КГц

MediaInfo

Общее
Полное имя : D:\Torrent файлы\Умирающий свет.avi
Формат : AVI
Формат/Информация : Audio Video Interleave
Размер файла : 1,45 Гбайт
Продолжительность : 1 ч. 34 м.
Общий поток : 2213 Кбит/сек
Программа кодирования : VirtualDubMod 1.5.10.3 | www.virtualdub-fr.org || (build 2550/release)
Библиотека кодирования : VirtualDubMod build 2550/release
Видео
Идентификатор : 0
Формат : MPEG-4 Visual
Профиль формата : Advanced Simple@L5
Параметр BVOP формата : Да
Параметр QPel формата : Нет
Параметр GMC формата : Без точки перехода
Параметр матрицы формата : Default (MPEG)
Идентификатор кодека : XVID
Идентификатор кодека/Подсказка : XviD
Продолжительность : 1 ч. 34 м.
Битрейт : 1820 Кбит/сек
Ширина : 720 пикселей
Высота : 304 пикселя
Соотношение сторон : 2,35:1
Частота кадров : 23,976 кадра/сек
Цветовое пространство : YUV
Субдискретизация насыщенности : 4:2:0
Битовая глубина : 8 бит
Тип развёртки : Прогрессивная
Метод сжатия : С потерями
Бит/(Пиксели*Кадры) : 0.347
Размер потока : 1,20 Гбайт (82%)
Библиотека кодирования : XviD 1.2.1 (UTC 2008-12-04)
Аудио
Идентификатор : 1
Формат : AC-3
Формат/Информация : Audio Coding 3
Расширение режима : CM (complete main)
Параметр Endianness формата : Big
Идентификатор кодека : 2000
Продолжительность : 1 ч. 34 м.
Вид битрейта : Постоянный
Битрейт : 384 Кбит/сек
Каналы : 6 каналов
Расположение каналов : Front: L C R, Side: L R, LFE
Частота : 48,0 КГц
Битовая глубина : 16 бит
Метод сжатия : С потерями
Размер потока : 258 Мбайт (17%)
Выравнивание : Разделение по промежуткам
Продолжительность промежутка : 42 мс. (1,00 видеокадр)
Время предзагрузки промежутка : 500 мс.

Скриншот c названием фильма

Скриншоты

[Профиль] [ЛС]
Кто просматривает тему:

Форум Тема Автор Размер
Разная литература Алексей Зинин, Егор Титов - «Спартак» – наше всё. Откровения кумира красно-белых (2016) FB2 достали все 9 MB
Фантастика, фэнтези Игорь Осипов | Метро 2033. Лешие не умирают (2015) [FB2, EPUB] достали все 2 MB
Фильмы (DVD 5/9) Никто не хотел умирать / Niekas nenorejo mirti / Nobody Wanted to Die (Витаутас Жалакявичюс / Vytautas Zalakevicius) [1965, СССР, драма, DVD9] Dub + Original Lit TorrentFilm 5.6 GB
R.G.TorrentFilm Video Ночь умирающего тигра / A Night for Dying Tigers (Терри Майлз / Terry Miles) [2010, Канада, Драма, SATRip] DVO (НТВ+) Один 777 751 MB
Фильмы (HD DVD, Blu-ray и BDRemux) Он никогда не умирал / He Never Died (2015) BDRemux 1080p | P Russian Mafia 21.7 GB
Фильмы 2015 года Он никогда не умирал / He Never Died (2015) BDRip | L достали все 1.46 GB
Фильмы 2015 года Он никогда не умирал / He Never Died (2015) WEB-DLRip | L2 достали все 1.37 GB
Фильмы 2015 года Он никогда не умирал / He Never Died (Джейсон Кравчик / Jason Krawczyk) [2015, США, Канада, триллер, драма, комедия, нуар, HDRip] Sub Rus + Original Eng TorrentFilm 697 MB
Показать сообщения:    

Текущее время: Сегодня 16:52

Часовой пояс: GMT



Вы не можете начинать темы
Вы не можете отвечать на сообщения
Вы не можете редактировать свои сообщения
Вы не можете удалять свои сообщения
Вы не можете голосовать в опросах
Вы не можете прикреплять файлы к сообщениям
Вы не можете скачивать файлы