Умерли. Агония. Начало конца / The Twilight Saga: Eclipse (2014) BDRip 1080p | Смешной перевод

 
Автор Сообщение

BOSS ®

Пол:

Стаж: 2 года 1 месяц

Сообщений: 3735

Откуда: ODESSA



Награды: 20 (Подробнее)

Top Keeper 2 (Количество: 1) Mega Seeder 2 (Количество: 1) Top Seeder 3 (Количество: 1)
Торрент-статистика

Создавать темы 22-Апр-2016 16:20

[Цитировать]

Информация о фильме
Название: Умерли. Агония. Начало конца
Оригинальное название: The Twilight Saga: Eclipse
Год выхода: 2010 / 2014
Жанр: Пародия, комедия, юмористический перевод
Режиссер: Дэвид Слэйд, Erceck
В ролях: Ксавьер Сэмюэл, Кристен Стюарт, Роберт Паттинсон, Билли Бёрк, Джастин Чон, Анна Кендрик, Майкл Уэлш, Кристиан Серратос, Джексон Рэтбоун, Эшли Грин
О фильме:
Третья часть франшизы "Умерли" (смешной перевод "Сумерек").
Кажется, что жизнь налаживается. Точнее, она должна наладиться. Вот-вот. Валя изучает книжки, на обложках которых в том или ином контексте упоминается магия… Да только наиболее достоверной из всех изученных книжек была «Кулинарная магия». Она надеется, что вот-вот в ней проснутся магические способности. Но всё тщетно. Её гложет чувство вины перед Яшкой. И вот опять наше внимание приковано к их любовному треугольнику. Скука смертная… Но скуку развеивает появление таинственного засланца, наведавшегося к Вале домой, пока её там не было. «Кто это был? Что это было? Почему это произошло?» — вот какими вопросами задаются известные нам по предыдущим частям обитатели сибирской глубинки. А между тем над ними нависла смертельная угроза в виде культа Аццкого Сотоны…
Страна: США
Продолжительность: 02:03:57
Перевод: любительский одноголосый (смешной перевод студии Проект возмездия)
Файл
Формат: MKV
Качество: BDRip 1080p
Видео: MPEG-4 AVC, 1920x800, 13.0 Mbps, 23.976 fps
Аудио: 48 kHz, AC-3, 6 channels, ~448 kbps avg
Семпл
Примечание автора раздачи:
Релиз от Альянса Вольных Переводчиков.
Присутствует нецензурная лексика.
HD-версию собрал MrClon.
Официальный сайт

MI

General
Unique ID : 169345802702708671945711204092697502607 (0x7F66D0B3726EBA94F97F0D460D8DE38F)
Complete name : D:__==film_Fumerli-agoniya-nachalo-konca_1080p.mkv
Format : Matroska
Format version : Version 4 / Version 2
File size : 11.6 GiB
Duration : 2h 3mn
Overall bit rate : 13.4 Mbps
Movie name : Умерли. Агония. Начало конца (Проект возмездия)
Encoded date : UTC 2016-04-06 15:09:31
Writing application : mkvmerge v6.7.0 ('Back to the Ground') 32bit built on Jan 9 2014 18:02:58
Writing library : libebml v1.3.0 + libmatroska v1.4.1
Video
ID : 1
Format : AVC
Format/Info : Advanced Video Codec
Format profile : High@L4.1
Format settings, CABAC : Yes
Format settings, ReFrames : 5 frames
Codec ID : V_MPEG4/ISO/AVC
Duration : 2h 3mn
Bit rate : 13.0 Mbps
Width : 1 920 pixels
Height : 800 pixels
Display aspect ratio : 2.40:1
Frame rate mode : Constant
Frame rate : 23.976 (24000/1001) fps
Color space : YUV
Chroma subsampling : 4:2:0
Bit depth : 8 bits
Scan type : Progressive
Bits/(Pixel*Frame) : 0.353
Stream size : 11.0 GiB (95%)
Title : The Twilight Saga: Eclipse (HDCLUB)
Writing library : x264 core 107 r1772 c9dad9e
Encoding settings : cabac=1 / ref=5 / deblock=1:-3:-3 / analyse=0x3:0x113 / me=tesa / subme=10 / psy=1 / psy_rd=1.00:0.00 / mixed_ref=1 / me_range=16 / chroma_me=1 / trellis=2 / 8x8dct=1 / cqm=0 / deadzone=21,11 / fast_pskip=0 / chroma_qp_offset=-2 / threads=6 / sliced_threads=0 / nr=0 / decimate=0 / interlaced=0 / constrained_intra=0 / bframes=8 / b_pyramid=2 / b_adapt=2 / b_bias=0 / direct=3 / weightb=1 / open_gop=0 / weightp=2 / keyint=250 / keyint_min=23 / scenecut=40 / intra_refresh=0 / rc=2pass / mbtree=0 / bitrate=13000 / ratetol=1.0 / qcomp=0.60 / qpmin=10 / qpmax=51 / qpstep=4 / cplxblur=20.0 / qblur=0.5 / ip_ratio=1.40 / pb_ratio=1.30 / aq=1:0.80
Language : English
Default : No
Forced : No
Audio
ID : 2
Format : AC-3
Format/Info : Audio Coding 3
Mode extension : CM (complete main)
Format settings, Endianness : Big
Codec ID : A_AC3
Duration : 2h 3mn
Bit rate mode : Constant
Bit rate : 448 Kbps
Channel(s) : 6 channels
Channel positions : Front: L C R, Side: L R, LFE
Sampling rate : 48.0 KHz
Frame rate : 31.250 fps (1536 spf)
Compression mode : Lossy
Stream size : 397 MiB (3%)
Title : Умерли. Агония. Начало конца (Проект возмездия)
Language : Russian
Default : Yes
Forced : No
Релиз от:
[Профиль] [ЛС]
Кто просматривает тему:

Форум Тема Автор Размер
Фильмы 2011 года Кто сказал, что мы умерли? / Sempre vivu! / Qui a dit que nous etions morts? (Робен Ренуччи / Robin Renucci) [2006, Франция, трагифарс, черный юмор, DVB] Original (Fre) + Sub (Rus, Eng, Fre, Deu) TorrentFilm 2.17 GB
Фильмы 2011 года Не говори маме, что няня умерла / Don't Tell Mom the Babysitter's Dead (Стивен Херек) [1991 г., комедия, семейный, DVDRip] [DVO] Bathory 1.46 GB
Фильмы (HD Rips | 720p, 1080p) Овечка Долли была злая и рано умерла (2015) WEB-DL 1080p Russian Mafia 3.94 GB
Фильмы (HD Rips | 720p, 1080p) Овечка Долли была злая и рано умерла (2015) WEB-DL 720p Russian Mafia 3.33 GB
Фильмы 2015 года Овечка Долли была злая и рано умерла (2015) WEB-DLRip Russian Mafia 1.45 GB
R.G.TorrentFilm Video Овечка Долли была злая и рано умерла (Алексей Пиманов) [2015 г., Фантастика, комедия, приключения, WEB-DLRip] Один 777 752 MB
Фильмы (HD Rips | 720p, 1080p) Овечка Долли была злая и рано умерла (Алексей Пиманов) [2015, Россия, фантастика, комедия, приключения, HDTV 1080i] TorrentFilm 6.91 GB
Показать сообщения:    

Текущее время: Сегодня 22:24

Часовой пояс: GMT



Вы не можете начинать темы
Вы не можете отвечать на сообщения
Вы не можете редактировать свои сообщения
Вы не можете удалять свои сообщения
Вы не можете голосовать в опросах
Вы не можете прикреплять файлы к сообщениям
Вы не можете скачивать файлы