Ультраамериканцы / American Ultra (Нима Нуризаде / Nima Nourizadeh) [2015, США, Швейцария, Боевик, комедия, BDRip-AVC] Dub + Sub Eng + Original Eng

 
Автор Сообщение

TorrentFilm ®

Пол:

Стаж: 2 года

Сообщений: 7741



Награды: Нет

Торрент-статистика

Создавать темы 20-Ноя-2015 00:08

[Цитировать]

УльтраамериканцыAmerican Ultra«Нет ничего опаснее обкуренного киллера с амнезией»

Страна: США, Швейцария
Жанр: Боевик, комедия
Год выпуска: 2015
Продолжительность: 01:35:41
Перевод: Профессиональный (дублированный) iTunes
Cубтитры: английские
Оригинальная аудиодорожка: английский
Режиссер: Нима Нуризаде / Nima Nourizadeh
В ролях: Джесси Айзенберг, Кристен Стюарт, Тофер Грейс, Конни Бриттон, Уолтон Гоггинс, Джон Легуизамо, Билл Пуллман, Тони Хейл, Стюарт Грир, Майкл Пападжон
Описание: А вдруг ты тоже спецагент, обладающий уникальной боевой подготовкой и сверхинтеллектом? Но просто ты забыл об этом… Как Майк Хоуэлл, лоботряс из супермаркета, который безмятежно читает комиксы и курит дурь пока славное прошлое не настигает его. И обдолбанный агент №1 становится мишенью №1.
Доп. информация:
Релиз группы:
Качество видео: BDRip-AVC | Ультраамериканцы / American Ultra (2015) 1080p BD-Remux| HD club
Формат видео: MKV
Видео: 1132x612 (1:85:1), 23,976 fps, 4348 Кbps, 0.262 bit/pixe
Аудио: 48 kHz, AC3 Dolby Digital, 3/2 (L,C,R,l,r) + LFE ch, ~384.00 kbps avg DUB
Аудио 2: 48 kHz, AC3 Dolby Digital, 3/2 (L,C,R,l,r) + LFE ch, ~448.00 kbps avg ENG
Формат субтитров: softsub (SRT)
Доп. информация о субтитрах: отключаемые

Знаете ли Вы что

• В качестве рекламного трюка студия Lionsgate раздавала марихуану посетителям Comic Con в Сан-Диего, имеющим соответствующее медицинское разрешение.
• Джесси Айзенберг рассказал в интервью, что готовясь к роли укурка, он жил со своим двоюродным братом Эндрю Айзенбергом (Andrew Eisenberg), который научил его манере речи и походке людей, которые часто употребляют марихуану. Джесси Айзенберг также отметил, что без помощи Эндрю он, скорее всего, не справился бы с этой ролью.
• Роль Виктории Лассетер могла достаться Уме Турман, но контракт с ней так и не был подписан. Место Турман должна была занять Шэрон Стоун, однако она покинула проект из-за несогласованности съемочных графиков. В итоге роль досталась Конни Бриттон.
• Для роли в этом фильме Кристен Стюарт покрасила волосы в ярко красный цвет.

MediaInfo

General
Unique ID : 252109853302718930596297345175514352577 (0xBDAA977176DCFE04AC4E23CD8E458BC1)
Complete name : D:\Мои рипы\Ультраамериканцы\American Ultra by_IVAN@190282.mkv
Format : Matroska
Format version : Version 4 / Version 2
File size : 3.53 GiB
Duration : 1h 35mn
Overall bit rate : 5 285 Kbps
Encoded date : UTC 2015-11-14 00:09:55
Writing application : mkvmerge v8.5.2 ('Crosses') 64bit
Writing library : libebml v1.3.3 + libmatroska v1.4.4
Attachements : cover.png
DURATION : 01:30:43.644000000
NUMBER_OF_FRAMES : 1441
NUMBER_OF_BYTES : 43595
_STATISTICS_WRITING_APP : mkvmerge v8.5.2 ('Crosses') 64bit
_STATISTICS_WRITING_DATE_UT : 2015-11-14 00:09:55
_STATISTICS_TAGS : BPS DURATION NUMBER_OF_FRAMES NUMBER_OF_BYTES
Video
ID : 1
Format : AVC
Format/Info : Advanced Video Codec
Format profile : High@L4.1
Format settings, CABAC : Yes
Format settings, ReFrames : 11 frames
Codec ID : V_MPEG4/ISO/AVC
Duration : 1h 35mn
Bit rate : 4 348 Kbps
Width : 1 132 pixels
Height : 612 pixels
Display aspect ratio : 1.85:1
Frame rate mode : Constant
Frame rate : 23.976 fps
Color space : YUV
Chroma subsampling : 4:2:0
Bit depth : 8 bits
Scan type : Progressive
Bits/(Pixel*Frame) : 0.262
Stream size : 2.91 GiB (82%)
Title : American Ultra by_IVAN@190282
Writing library : x264 core 148 r2638kMod 7599210
Encoding settings : cabac=1 / ref=11 / deblock=1:-3:-2 / analyse=0x3:0x133 / me=umh / subme=11 / psy=1 / fade_compensate=0.00 / psy_rd=1.00:0.05 / mixed_ref=1 / me_range=48 / chroma_me=1 / trellis=2 / 8x8dct=1 / cqm=0 / deadzone=21,11 / fast_pskip=0 / chroma_qp_offset=-3 / threads=6 / lookahead_threads=6 / sliced_threads=0 / nr=0 / decimate=1 / interlaced=0 / bluray_compat=0 / constrained_intra=0 / fgo=0 / bframes=16 / b_pyramid=2 / b_adapt=2 / b_bias=0 / direct=3 / weightb=1 / open_gop=0 / weightp=2 / keyint=240 / keyint_min=23 / scenecut=40 / intra_refresh=0 / rc_lookahead=60 / rc=crf / mbtree=0 / crf=17.6000 / qcomp=0.60 / qpmin=0 / qpmax=69 / qpstep=4 / vbv_maxrate=50000 / vbv_bufsize=62500 / crf_max=0.0 / nal_hrd=none / filler=0 / ip_ratio=1.40 / pb_ratio=1.30 / aq=2:1.10
Language : English
Default : Yes
Forced : No
Color range : Limited
Color primaries : BT.709
Transfer characteristics : BT.709
Matrix coefficients : BT.709
DURATION : 01:35:41.861000000
NUMBER_OF_FRAMES : 137667
NUMBER_OF_BYTES : 3193838156
_STATISTICS_WRITING_APP : mkvmerge v8.5.2 ('Crosses') 64bit
_STATISTICS_WRITING_DATE_UT : 2015-11-14 00:09:55
_STATISTICS_TAGS : BPS DURATION NUMBER_OF_FRAMES NUMBER_OF_BYTES
Audio #1
ID : 2
Format : AC-3
Format/Info : Audio Coding 3
Mode extension : CM (complete main)
Format settings, Endianness : Big
Codec ID : A_AC3
Duration : 1h 35mn
Bit rate mode : Constant
Bit rate : 384 Kbps
Channel(s) : 6 channels
Channel positions : Front: L C R, Side: L R, LFE
Sampling rate : 48.0 KHz
Compression mode : Lossy
Stream size : 263 MiB (7%)
Title : Dub
Default : Yes
Forced : No
Audio #2
ID : 3
Format : AC-3
Format/Info : Audio Coding 3
Mode extension : CM (complete main)
Format settings, Endianness : Big
Codec ID : A_AC3
Duration : 1h 35mn
Bit rate mode : Constant
Bit rate : 448 Kbps
Channel(s) : 6 channels
Channel positions : Front: L C R, Side: L R, LFE
Sampling rate : 48.0 KHz
Compression mode : Lossy
Stream size : 307 MiB (8%)
Title : Eng
Language : English
Default : No
Forced : No
Text #1
ID : 4
Format : UTF-8
Codec ID : S_TEXT/UTF8
Codec ID/Info : UTF-8 Plain Text
Title : Eng
Language : English
Default : No
Forced : No
Text #2
ID : 5
Format : UTF-8
Codec ID : S_TEXT/UTF8
Codec ID/Info : UTF-8 Plain Text
Title : Eng SDH
Language : English
Default : No
Forced : No
Menu
00:00:00.000 : en:Chapter 1
00:07:33.411 : en:Chapter 2
00:12:00.302 : en:Chapter 3
00:12:59.445 : en:Chapter 4
00:15:55.370 : en:Chapter 5
00:20:56.922 : en:Chapter 6
00:23:15.434 : en:Chapter 7
00:25:52.675 : en:Chapter 8
00:29:59.255 : en:Chapter 9
00:38:14.041 : en:Chapter 10
00:46:43.842 : en:Chapter 11
00:49:46.315 : en:Chapter 12
00:53:19.528 : en:Chapter 13
00:55:10.222 : en:Chapter 14
00:58:07.858 : en:Chapter 15
01:08:42.326 : en:Chapter 16
01:12:22.337 : en:Chapter 17
01:15:45.707 : en:Chapter 18
01:19:10.162 : en:Chapter 19
01:22:46.836 : en:Chapter 20
01:25:09.686 : en:Chapter 21

x264 log

VIDEO ENCODING
x264 [info]: frame I:1100 Avg QP:14.80 size:114860 PSNR Mean Y:47.97 U:52.02 V:52.61 Avg:48.90 Global:48.25
x264 [info]: frame P:29566 Avg QP:16.17 size: 45181 PSNR Mean Y:47.00 U:51.80 V:53.86 Avg:48.00 Global:47.11
x264 [info]: frame B:107001 Avg QP:18.34 size: 16184 PSNR Mean Y:45.55 U:50.71 V:51.73 Avg:46.62 Global:45.89
x264 [info]: consecutive B-frames: 2.7% 2.7% 10.0% 12.4% 15.5% 39.9% 7.4% 2.3% 1.8% 1.1% 1.2% 0.7% 0.7% 0.8% 0.4% 0.1% 0.2%
x264 [total]: encoded 137667 frames, 2.33 fps, 4449.90 kb/s, duration 16:23:05.53

Скриншот c названием фильма

Скриншоты

Убедительная просьба пожалуйста кто скачал не бросайте раздачу!!!
[Профиль] [ЛС]
Показать сообщения:    

Текущее время: Сегодня 08:52

Часовой пояс: GMT



Вы не можете начинать темы
Вы не можете отвечать на сообщения
Вы не можете редактировать свои сообщения
Вы не можете удалять свои сообщения
Вы не можете голосовать в опросах
Вы не можете прикреплять файлы к сообщениям
Вы не можете скачивать файлы