Ультраамериканцы / American Ultra (2015) WEB-DL 720p | iTunes

 
Автор Сообщение

Russian Mafia ®

Пол:

Стаж: 1 год 8 месяцев

Сообщений: 4257



Награды: 10 (Подробнее)

Mega Seeder 2 (Количество: 1) Mega Seeder 5 (Количество: 1) Top Releaser 3 (Количество: 1)
Торрент-статистика

Создавать темы 10-Сен-2015 20:04

[Цитировать]

Информация о фильме
Название: Ультраамериканцы
Оригинальное название: American Ultra
Год выхода: 2015
Жанр: боевик, комедия
Режиссер: Нима Нуризаде
В ролях: Джесси Айзенберг, Кристен Стюарт, Тофер Грейс, Конни Бриттон, Уолтон Гоггинс, Джон Легуизамо, Билл Пуллман, Тони Хейл, Стюарт Грир, Майкл Пападжон
О фильме: А вдруг ты тоже спецагент, обладающий уникальной боевой подготовкой и сверхинтеллектом? Но просто ты забыл об этом… Как Майк Хоуэлл, лоботряс из супермаркета, который безмятежно читает комиксы и курит дурь пока славное прошлое не настигает его. И обдолбанный агент N1 становится мишенью N1.

Выпущено: США / Bridge Finance Company, The; Circle of Confusion, FilmNation Entertainment, Likely Story, Merced Media Partners, Palm-Star Entertainment
Продолжительность: 01:35:34
Озвучивание: Дублированное [iTunes]
Файл
Формат: MKV
Качество: WEB-DL 720p
Видео: 3912 kb/s, 1280x692
Аудио: AC3, 384 kb/s (6 ch)

MI

Format : Matroska
Format version : Version 4 / Version 2
File size : 2.93 GiB
Duration : 1h 35mn
Overall bit rate : 4 384 Kbps
Encoded date : UTC 2015-09-10 18:08:29
Writing application : mkvmerge v6.9.1 ('Blue Panther') 64bit built on Apr 18 2014 18:23:38
Writing library : libebml v1.3.0 + libmatroska v1.4.1
Video
ID : 1
Format : AVC
Format/Info : Advanced Video Codec
Format profile : High@L3.1
Format settings, CABAC : No
Format settings, ReFrames : 2 frames
Codec ID : V_MPEG4/ISO/AVC
Duration : 1h 35mn
Bit rate : 3 912 Kbps
Width : 1 280 pixels
Height : 692 pixels
Display aspect ratio : 1.85:1
Frame rate mode : Constant
Frame rate : 24.000 fps
Color space : YUV
Chroma subsampling : 4:2:0
Bit depth : 8 bits
Scan type : Progressive
Bits/(Pixel*Frame) : 0.184
Stream size : 2.61 GiB (89%)
Language : English
Default : Yes
Forced : No
Color range : Limited
Color primaries : BT.709
Transfer characteristics : BT.709
Matrix coefficients : BT.709
Audio
ID : 2
Format : AC-3
Format/Info : Audio Coding 3
Mode extension : CM (complete main)
Format settings, Endianness : Big
Codec ID : A_AC3
Duration : 1h 35mn
Bit rate mode : Constant
Bit rate : 384 Kbps
Channel(s) : 6 channels
Channel positions : Front: L C R, Side: L R, LFE
Sampling rate : 48.0 KHz
Bit depth : 16 bits
Compression mode : Lossy
Stream size : 262 MiB (9%)
Language : Russian
Default : Yes
Forced : No
Menu
00:00:00.000 : en:Глава 1
00:02:23.000 : en:Глава 2
00:07:23.000 : en:Глава 3
00:14:21.000 : en:Глава 4
00:18:51.000 : en:Глава 5
00:23:32.000 : en:Глава 6
00:30:48.000 : en:Глава 7
00:36:38.000 : en:Глава 8
00:42:28.000 : en:Глава 9
00:47:44.000 : en:Глава 10
00:55:10.000 : en:Глава 11
01:00:08.000 : en:Глава 12
01:06:24.000 : en:Глава 13
01:11:34.000 : en:Глава 14
01:18:34.000 : en:Глава 15
01:25:41.000 : en:Глава 16

Скриншоты

[Профиль] [ЛС]
Показать сообщения:    

Текущее время: Сегодня 14:56

Часовой пояс: GMT



Вы не можете начинать темы
Вы не можете отвечать на сообщения
Вы не можете редактировать свои сообщения
Вы не можете удалять свои сообщения
Вы не можете голосовать в опросах
Вы не можете прикреплять файлы к сообщениям
Вы не можете скачивать файлы